Он и Она / Мужчина и Женщина / Raja Rani (Атли Кумар / Atlee Kumar) [2013, Индия, Драма, мелодрама, комедия, HDRip] MVO (Red Media)

Ответить на тему
 
Автор Сообщение

user ®

Стаж: 12 лет

Сообщений: 15092

Пост Пост: #1 от 18-Фев-2015 21:21

[Цитировать]

Он и Она / Мужчина и Женщина / Raja Rani
Страна: Индия
Жанр: Драма, мелодрама, комедия
Год выпуска: 2013
Продолжительность: 02:44:03
Перевод: Профессиональный (многоголосый закадровый) Red Media
Cубтитры: нет
Режиссер: Атли Кумар / Atlee Kumar
В ролях: Арья, Наянтара, Джей, Сатьярадж, Сантханам, Сатьян, Монобала, Раджендран, Миша Гхошал, Т.М. Картик Сринивасан, Дханья Балакришна
Описание: Фильм начинается со свадьбы Джона (Арья) и Регины (Наянтара). Их семейная жизнь похожа на ад. И вот однажды, у Регины случается приступ, в результате чего она оказывается в больнице. На вопрос Джона, случалось ли с ней такое раньше, Регина приоткрывает ему своё прошлое...
Доп. информация: Исходник BDRip (1080p) (СПАСИБО! Ранечка)
Сэмпл: http://multi-up.com/1033550
Качество видео: HDRip
Формат видео: AVI
Видео: XviD build 50, 720x304 (2.37:1), 23.976 fps, 1137 kbps avg
Аудио: MPEG Layer 3, 48 kHz, 2/0 (L,R) ch, 128.00 kbps avg
MediaInfo
General
Complete name : D:\On.I.Ona.2013.XviD.HDRip-Dego.avi
Format : AVI
Format/Info : Audio Video Interleave
File size : 1.46 GiB
Duration : 2h 44mn
Overall bit rate : 1 275 Kbps
Writing application : VirtualDubMod 1.5.10.2 (build 2540/release)
Writing library : VirtualDubMod build 2540/release
Video
ID : 0
Format : MPEG-4 Visual
Format profile : AdvancedSimple@L5
Format settings, BVOP : Yes
Format settings, QPel : No
Format settings, GMC : No warppoints
Format settings, Matrix : Custom
Codec ID : XVID
Codec ID/Hint : XviD
Duration : 2h 44mn
Bit rate : 1 138 Kbps
Width : 720 pixels
Height : 304 pixels
Display aspect ratio : 2.35
Frame rate : 23.976 fps
Resolution : 24 bits
Colorimetry : 4:2:0
Scan type : Progressive
Bits/(Pixel*Frame) : 0.217
Stream size : 1.30 GiB (89%)
Writing library : XviD 1.2.1 (UTC 2008-12-04)
Audio
ID : 1
Format : MPEG Audio
Format version : Version 1
Format profile : Layer 3
Codec ID : 55
Codec ID/Hint : MP3
Duration : 2h 44mn
Bit rate mode : Constant
Bit rate : 128 Kbps
Channel(s) : 2 channels
Sampling rate : 48.0 KHz
Resolution : 16 bits
Stream size : 150 MiB (10%)
Alignment : Aligned on interleaves
Interleave, duration : 42 ms (1.00 video frame)
Interleave, preload duration : 504 ms
Скриншот c названием фильма Скриншоты
Скачать

Скачать торрент! Он и Она / Мужчина и Женщина / Raja Rani (Атли Кумар / Atlee Kumar) [2013, Индия, Драма, мелодрама, комедия, HDRip] MVO (Red Media)

Как скачивать? · Что такое торрент? · Рейтинг и ограничения

Сайт не распространяет и не хранит электронные версии произведений, а лишь предоставляет доступ к создаваемому пользователями каталогу ссылок на торрент-файлы, которые содержат только списки хеш-сумм

[Профиль] [ЛС]
Показать сообщения:    
Ответить на тему

Текущее время: Сегодня 06:35

Часовой пояс: GMT + 4



Вы не можете начинать темы
Вы не можете отвечать на сообщения
Вы не можете редактировать свои сообщения
Вы не можете удалять свои сообщения
Вы не можете голосовать в опросах
Вы не можете прикреплять файлы к сообщениям
Вы не можете скачивать файлы