Преданные / The Betrayed (Аманда Кьюсак \\ Amanda Gusack) [2008, США, Криминал, Драма, Триллер, HDTVRip 720p] DVO

Ответить на тему
 
Автор Сообщение

user ®

Стаж: 7 лет 7 месяцев

Сообщений: 20008

Пост Пост: #1 от 18-Фев-2015 18:06

[Цитировать]

Преданные / The Betrayed
Страна: США
Студия: Metro-Goldwyn-Mayer
Жанр: Криминал, Драма, Триллер
Год выпуска: 2008
Продолжительность: 01:34:00
Перевод: Профессиональный (двухголосый закадровый) Intra Communications
Cубтитры: нет
Оригинальная аудиодорожка: отсутствует
Режиссер: Аманда Кьюсак \ Amanda Gusack
В ролях: Мелисса Джордж, Donald Adams, Christian Campbell, Scott Heindl
Описание: После автомобильной аварии Джейн просыпается на полу в холодной мрачной комнате. Её и сына схватили. Похитители уверяют, что её муж — не тот, за кого выдавал себя все эти годы. Он работает на поставщиков героина и должен своему боссу 40 миллионов долларов.
IMDb
Сэмпл: Скачать
Тип релиза: HDTVRip 720p
Контейнер: MKV
Видео: MPEG-4 AVC, 5500 Кбит/с, 1280x720, 25 fps
Аудио: Русский, АС3, 6 ch, 448 Кбит/с
MediaInfo
General
Unique ID : 243061775057220782495367527439187543296 (0xB6DBFEBE571A1C35A6A76790B5178500)
Complete name : I:\Торренты\Фильмы\Художественные\Преданные_720p.mkv
Format : Matroska
Format version : Version 4 / Version 2
File size : 3.92 GiB
Duration : 1h 34mn
Overall bit rate : 5 945 Kbps
Encoded date : UTC 2015-02-16 18:48:11
Writing application : mkvmerge v6.6.0 ('The Edge Of The In Between') built on Dec 1 2013 17:55:00
Writing library : libebml v1.3.0 + libmatroska v1.4.1
Video
ID : 1
Format : AVC
Format/Info : Advanced Video Codec
Format profile : High@L4.1
Format settings, CABAC : Yes
Format settings, ReFrames : 9 frames
Codec ID : V_MPEG4/ISO/AVC
Duration : 1h 34mn
Bit rate : 5 500 Kbps
Width : 1 280 pixels
Height : 720 pixels
Display aspect ratio : 16:9
Frame rate mode : Constant
Frame rate : 25.000 fps
Color space : YUV
Chroma subsampling : 4:2:0
Bit depth : 8 bits
Scan type : Progressive
Bits/(Pixel*Frame) : 0.239
Stream size : 3.55 GiB (90%)
Writing library : x264 core 142 r2431 ac76440
Encoding settings : cabac=1 / ref=9 / deblock=1:-2:-2 / analyse=0x3:0x133 / me=umh / subme=9 / psy=1 / psy_rd=1.00:0.10 / mixed_ref=1 / me_range=32 / chroma_me=1 / trellis=2 / 8x8dct=1 / cqm=0 / deadzone=21,11 / fast_pskip=1 / chroma_qp_offset=-3 / threads=6 / lookahead_threads=1 / sliced_threads=0 / nr=0 / decimate=0 / interlaced=0 / bluray_compat=0 / constrained_intra=0 / bframes=9 / b_pyramid=2 / b_adapt=2 / b_bias=0 / direct=3 / weightb=1 / open_gop=0 / weightp=2 / keyint=250 / keyint_min=23 / scenecut=40 / intra_refresh=0 / rc=2pass / mbtree=0 / bitrate=5500 / ratetol=1.0 / qcomp=0.60 / qpmin=0 / qpmax=69 / qpstep=4 / cplxblur=20.0 / qblur=0.5 / ip_ratio=1.40 / pb_ratio=1.30 / aq=1:1.00
Language : English
Default : Yes
Forced : No
Audio
ID : 2
Format : AC-3
Format/Info : Audio Coding 3
Mode extension : CM (complete main)
Format settings, Endianness : Big
Codec ID : A_AC3
Duration : 1h 34mn
Bit rate mode : Constant
Bit rate : 448 Kbps
Channel(s) : 6 channels
Channel positions : Front: L C R, Side: L R, LFE
Sampling rate : 48.0 KHz
Bit depth : 16 bits
Compression mode : Lossy
Delay relative to video : 68ms
Stream size : 303 MiB (8%)
Language : Russian
Default : No
Forced : No
Скриншоты
Скачать

Скачать торрент!

Как скачивать? · Что такое торрент? · Рейтинг и ограничения

Сайт не распространяет и не хранит электронные версии произведений, а лишь предоставляет доступ к создаваемому пользователями каталогу ссылок на торрент-файлы, которые содержат только списки хеш-сумм

[Профиль] [ЛС]
Показать сообщения:    
Ответить на тему

Текущее время: Сегодня 14:15

Часовой пояс: GMT + 4



Вы не можете начинать темы
Вы не можете отвечать на сообщения
Вы не можете редактировать свои сообщения
Вы не можете удалять свои сообщения
Вы не можете голосовать в опросах
Вы не можете прикреплять файлы к сообщениям
Вы не можете скачивать файлы