Великое противостояние / Great duel / The Great Killing / Dai satsujin (Эйчи Кудо / Eiichi Kudo) [1964, Япония, боевик, драма, DVDRip] AVO (С. Кузнецов)

Ответить на тему
 
Автор Сообщение

user ®

Стаж: 13 лет

Сообщений: 15071

Пост Пост: #1 от 18-Фев-2015 11:27

[Цитировать]

Великое противостояние / Great duel / The Great Killing / Dai satsujin- -Страна: Япония
Жанр: боевик, драма
Год выпуска: 1964
Продолжительность: 01:53:41-Перевод: Авторский (одноголосый закадровый) [С. Кузнецов]-Cубтитры: нет
Оригинальная аудиодорожка: нет
Режиссер: Эйчи Кудо / Eiichi Kudo
В ролях: Тору Абэ, Микидзиро Хира, Ёсио Инаба, Тиэдзо Катаока, Чоичиро Каваразаки, Сиро Осака, Котаро Сатоми, Каяко Соно...
Описание: Во времена правления четёртого сёгуна из династии Токугава — Иэцунэ большую силу приобрёл министр Сакаи. Он имел большое влияние на сёгуна и пользовался им для своих личных целей. Подданные страны восходящего солнца страдали от коррумпированных чиновников и непомерных налогов. Группа самураев решает убить министра Сакаи, даже если им самим это будет стоить жизни.
Релиз от -
Сэмпл: http://multi-up.com/1033508
Качество видео: DVDRip
Формат видео: AVI
Видео: MPEG-4 Visual at 783 Кбит/сек; 688 x 304 (2.263) at 25.000 fps
Аудио: MPEG Audio at 128 Кбит/сек; 2 канала, 48,0 КГц
Автор -
MediaInfo
Общее
Полное имя : D:\Фильмы\Азиатские\Великое противостояние\The Great Killing.1964.DVDRip.XviD.745MB. rip by [Assassin's Creed].avi
Формат : AVI
Формат/Информация : Audio Video Interleave
Размер файла : 749 Мбайт
Продолжительность : 1 ч. 53 м.
Общий поток : 921 Кбит/сек
Программа кодирования : VirtualDubMod 1.5.10.3 | www.virtualdub-fr.org || (build 2550/release)
Библиотека кодирования : VirtualDubMod build 2550/release
Видео
Идентификатор : 0
Формат : MPEG-4 Visual
Профиль формата : Advanced Simple@L5
Параметр BVOP формата : 1
Параметр QPel формата : Нет
Параметр GMC формата : Без точки перехода
Параметр матрицы формата : Default (MPEG)
Идентификатор кодека : XVID
Идентификатор кодека/Подсказка : XviD
Продолжительность : 1 ч. 53 м.
Битрейт : 783 Кбит/сек
Ширина : 688 пикселей
Высота : 304 пикселя
Соотношение сторон : 2,25:1
Частота кадров : 25,000 кадров/сек
Цветовое пространство : YUV
Субдискретизация насыщенности : 4:2:0
Битовая глубина : 8 бит
Тип развёртки : Прогрессивная
Метод сжатия : С потерями
Бит/(Пиксели*Кадры) : 0.150
Размер потока : 637 Мбайт (85%)
Библиотека кодирования : XviD 1.2.1 (UTC 2008-12-04)
Аудио
Идентификатор : 1
Формат : MPEG Audio
Версия формата : Version 1
Профиль формата : Layer 3
Идентификатор кодека : 55
Идентификатор кодека/Подсказка : MP3
Продолжительность : 1 ч. 53 м.
Вид битрейта : Постоянный
Битрейт : 128 Кбит/сек
Каналы : 2 канала
Частота : 48,0 КГц
Метод сжатия : С потерями
Размер потока : 104 Мбайт (14%)
Выравнивание : Соединение по промежуткам
Продолжительность промежутка : 40 мс. (1,00 видеокадр)
Время предзагрузки промежутка : 504 мс.
Библиотека кодирования : LAME3.99r
Настройки программы : -m s -V 4 -q 2 -lowpass 17 -b 128
Скриншот c названием фильма Скриншоты
Скачать

Скачать торрент! Великое противостояние / Great duel / The Great Killing / Dai satsujin (Эйчи Кудо / Eiichi Kudo) [1964, Япония, боевик, драма, DVDRip] AVO (С. Кузнецов)

Как скачивать? · Что такое торрент? · Рейтинг и ограничения

Сайт не распространяет и не хранит электронные версии произведений, а лишь предоставляет доступ к создаваемому пользователями каталогу ссылок на торрент-файлы, которые содержат только списки хеш-сумм

[Профиль] [ЛС]
Показать сообщения:    
Ответить на тему

Текущее время: Сегодня 21:47

Часовой пояс: GMT + 4



Вы не можете начинать темы
Вы не можете отвечать на сообщения
Вы не можете редактировать свои сообщения
Вы не можете удалять свои сообщения
Вы не можете голосовать в опросах
Вы не можете прикреплять файлы к сообщениям
Вы не можете скачивать файлы