Черная пантера / Black Panther / Hak Paau (Хау Чан / Hau Chang) [1973, Гонконг, боевые искусства, DVDRip] VO (Виктор Береговых)

Ответить на тему
 
Автор Сообщение

user ®

Стаж: 13 лет

Сообщений: 15071

Пост Пост: #1 от 17-Фев-2015 21:27

[Цитировать]

Черная пантера / Black Panther / Hak Paau
Страна: Гонконг
Жанр: боевые искусства
Год выпуска: 1973
Продолжительность: 01:19:50
Перевод: Одноголосый закадровый (Виктор Береговых)
Cубтитры: нет
Режиссер: Хау Чан / Hau Chang
В ролях: Чань Сын, Ясуаки Курата, Нэнси Йен, Лун Фэй, Ма Кэй, Шань Мао, Чен Фу Хун
Описание: Чан Пао (Чань Сын) и Чу Вень возвращаются с Гаваев в Гонконг.В аэропорту они проходят таможенную проверку и у Чан Пао находят героин.Парень не знает кто его подставил,но не может доказать свою невиновность и садится в тюрьму.Проходит три года.Остается два дня до освобождения и тут Чан Пао снова подставляют и обвиняют в убийстве.И теперь Чан Пао полон ярости.Он сбегает из тюрьмы,чтобы поквитаться с тем,кто его подставил тогда и сейчас...
Сэмпл: https://www.sendspace.com/file/ye8l20
Качество видео: DVDRip
Формат видео: AVI
Видео: XviD, 640x272 (2.35:1), 25.000 fps, 1027 kbps avg, 0.236 bit/pixel
Аудио: AC3, 48.0 KHz, 192 Kbps, 2 channels
MediaInfo
Format : AVI
Format/Info : Audio Video Interleave
File size : 700 MiB
Duration : 1h 19mn
Overall bit rate : 1 226 Kbps
Writing application : VirtualDubMod 1.5.4.1 (build 2178/release)
Writing library : VirtualDubMod build 2178/release
Video
ID : 0
Format : MPEG-4 Visual
Format profile : AdvancedSimple@L5
Format settings, BVOP : Yes
Format settings, QPel : No
Format settings, GMC : No warppoints
Format settings, Matrix : Custom
Codec ID : XVID
Codec ID/Hint : XviD
Duration : 1h 19mn
Bit rate : 1 027 Kbps
Width : 640 pixels
Height : 272 pixels
Display aspect ratio : 2.35:1
Frame rate : 25.000 fps
Resolution : 24 bits
Colorimetry : 4:2:0
Scan type : Progressive
Bits/(Pixel*Frame) : 0.236
Stream size : 587 MiB (84%)
Writing library : XviD 1.2.0.dev47 (UTC 2006-11-01)
Audio
ID : 1
Format : AC-3
Format/Info : Audio Coding 3
Codec ID : 2000
Duration : 1h 19mn
Bit rate mode : Constant
Bit rate : 192 Kbps
Channel(s) : 2 channels
Channel positions : L R
Sampling rate : 48.0 KHz
Stream size : 110 MiB (16%)
Alignment : Split accross interleaves
Interleave, duration : 96 ms (2.40 video frames)
Interleave, preload duration : 96 ms
Language : Russian
Скриншот c названием фильма Скриншоты
Скачать

Скачать торрент! Черная пантера / Black Panther / Hak Paau (Хау Чан / Hau Chang) [1973, Гонконг, боевые искусства, DVDRip] VO (Виктор Береговых)

Как скачивать? · Что такое торрент? · Рейтинг и ограничения

Сайт не распространяет и не хранит электронные версии произведений, а лишь предоставляет доступ к создаваемому пользователями каталогу ссылок на торрент-файлы, которые содержат только списки хеш-сумм

[Профиль] [ЛС]
Показать сообщения:    
Ответить на тему

Текущее время: Сегодня 18:38

Часовой пояс: GMT + 4



Вы не можете начинать темы
Вы не можете отвечать на сообщения
Вы не можете редактировать свои сообщения
Вы не можете удалять свои сообщения
Вы не можете голосовать в опросах
Вы не можете прикреплять файлы к сообщениям
Вы не можете скачивать файлы