Архангельские новеллы. Выпуск первый (Перепилиха, Апельсин) (Леонид Носырев) [1986, мультфильм, DVB]

Ответить на тему
 
Автор Сообщение

user ®

Стаж: 7 лет 7 месяцев

Сообщений: 20008

Пост Пост: #1 от 17-Фев-2015 14:21

[Цитировать]

Архангельские новеллы. Выпуск первый (Перепилиха, Апельсин)
Страна: СССР, Союзмультфильм
Жанр: мультфильм
Год выпуска: 1986
Продолжительность: 00:15:12
Режиссёр: Леонид Носырев
Описание: мультипликационный фильм по сказкам Степана Писахова состоит из двух новелл «Перепилиха» и «Апельсин», которые в дальнейшем войдут в полнометражный фильм "Смех и горе у Бела моря". Сказки Писахова, отражающие народную фантазию, мудрость и оптимизм, рассказаны ярко, с добрым юмором.
Доп. информация: по сказкам Степана Писахова

Релиз группы:
Трансляция спутникового канала:

Качество видео: DVB
Формат видео: MPEG-PS
Видео: MPEG2 Video, 720x576 (4:3), 25 fps, 3900 kbps
Аудио: MPEG Audiо, 2 сh, 48 kHz, 192 kbps
Сравнение
[url=http://***/forum/viewtopic.php?t=3544803]http://***/forum/viewtopic.php?t=3544803[/url]
скрытый текст MediaInfo
General
Complete name : D:\Архангельские новеллы. (1986)_DVB by SLuMeP.mpg
Format : MPEG-PS
File size : 455 MiB
Duration : 15mn 12s
Overall bit rate mode : Variable
Overall bit rate : 4 178 Kbps
Video
ID : 224 (0xE0)
Format : MPEG Video
Format version : Version 2
Format profile : Main@Main
Format settings, BVOP : No
Format settings, Matrix : Custom
Format settings, GOP : M=3, N=12
Duration : 15mn 12s
Bit rate mode : Variable
Bit rate : 3 903 Kbps
Maximum bit rate : 5 000 Kbps
Width : 720 pixels
Height : 576 pixels
Display aspect ratio : 4:3
Frame rate : 25.000 fps
Standard : PAL
Color space : YUV
Chroma subsampling : 4:2:0
Bit depth : 8 bits
Scan type : Interlaced
Scan order : Top Field First
Compression mode : Lossy
Bits/(Pixel*Frame) : 0.376
Time code of first frame : 00:00:00:00
Time code source : Group of pictures header
Stream size : 425 MiB (93%)
Audio
ID : 192 (0xC0)
Format : MPEG Audio
Format version : Version 1
Format profile : Layer 2
Duration : 15mn 12s
Bit rate mode : Constant
Bit rate : 192 Kbps
Channel(s) : 2 channels
Sampling rate : 48.0 KHz
Compression mode : Lossy
Stream size : 20.9 MiB (5%)
Скриншоты
Скачать

Скачать торрент!

Как скачивать? · Что такое торрент? · Рейтинг и ограничения

Сайт не распространяет и не хранит электронные версии произведений, а лишь предоставляет доступ к создаваемому пользователями каталогу ссылок на торрент-файлы, которые содержат только списки хеш-сумм

[Профиль] [ЛС]
Показать сообщения:    
Ответить на тему

Текущее время: Сегодня 20:20

Часовой пояс: GMT + 4



Вы не можете начинать темы
Вы не можете отвечать на сообщения
Вы не можете редактировать свои сообщения
Вы не можете удалять свои сообщения
Вы не можете голосовать в опросах
Вы не можете прикреплять файлы к сообщениям
Вы не можете скачивать файлы