Клан Токио / Банды Токио / Tokyo Tribe (Сион Соно / Sion Sono) [2014, Япония, фантастика, драма, BDRip-AVC] original Jap + Sub (rus)

Ответить на тему
 
Автор Сообщение

user ®

Стаж: 13 лет

Сообщений: 15071

Пост Пост: #1 от 17-Фев-2015 11:00

[Цитировать]

Клан Токио / Банды Токио / Tokyo Tribe- -Страна: Япония
Жанр: фантастика, драма
Год выпуска: 2014
Продолжительность: 01:56:21-Перевод: Субтитры-Cубтитры: русские
Оригинальная аудиодорожка: японский
Режиссер: Сион Соно / Sion Sono
В ролях: Томоко Карина, Акихиро Китамура, Рёхэй Судзуки, Хитоми Катаяма, Мотоки Фуками, Сёта Сомэтани, Хироко Ясики, Ёскэ Кубодзука, Сёко Накагава...
Описание: Ближайшее будущее. После беспорядков в районе Шибуя прошло пять лет. Теперь в Токио есть только несколько могущественных банд, которые находятся в состоянии относительного мира, пока несколько членов Мюсашино Сару не вторгаются на территории Букуро Ву-Ронз. Meрa, лидер Ву-Ронз убивает троих из них. Кай Дегучи - член банды Мюсашино Сару, во главе которой стоит Тера. Кай и Мера - бывшие лучшие друзья. Спустя два дня после поисков убийцы своих товарищей, Кай вступает в схватку с бывшим другом, итогом которой становится смерть лидера Мюсашино Сару - миролюбивого Теры. Хрупкому миру пришёл конец, война начата..
Релиз от -
Качество видео: BDRip-AVC [исх. BDRemux 1080p HD Club]
Формат видео: MKV
Видео: AVC at 1323 Кбит/сек; 720 x 304 (2.401) at 23.976 fps
Аудио: AC-3 at 384 Кбит/сек; 6 каналов, 48,0 КГц
Автор - VLADO_G
Субтитры
1
00:00:22,773 --> 00:00:24,900
Когда я вырасту, я принесу надежду
2
00:00:24,900 --> 00:00:27,653
и радость в этот город.
3
00:00:28,904 --> 00:00:30,864
Я приложу все усилия, чтобы это сделать.
4
00:00:33,867 --> 00:00:35,369
Опа, гамбургер.
5
00:00:35,953 --> 00:00:36,828
Йон, достань его для меня!
6
00:00:37,246 --> 00:00:38,372
ОК!
7
00:00:45,587 --> 00:00:47,840
ЭЙ, Йон! Ты что делаешь?
8
00:00:47,965 --> 00:00:49,007
Отвалите.
9
00:00:49,216 --> 00:00:50,175
Будь осторожен.
10
00:00:50,384 --> 00:00:52,010
Этот город опасен.
11
00:00:52,302 --> 00:00:53,512
Я знаю!
12
00:00:57,266 --> 00:00:59,518
ЭЙ, Шоу. Шоу!
13
00:00:59,935 --> 00:01:03,188
Этой ночью что-то произойдёт.
Понимаешь?
14
00:01:06,358 --> 00:01:09,570
Шоу! Заскакивай на огонек!
15
00:01:09,695 --> 00:01:10,821
Повеселимся!
16
00:01:15,659 --> 00:01:17,411
Грядёт землетрясение!
17
00:01:26,503 --> 00:01:30,841
Конец уже близок!
18
00:01:34,845 --> 00:01:37,055
Вам знакомо одиночество?!
19
00:01:37,097 --> 00:01:38,390
Дура!
20
00:01:39,975 --> 00:01:41,518
Давно здесь живёте?
MediaInfo
Общее
Уникальный идентификатор : 228333473224153284329747064891340751294 (0xABC76D6613EB74EAB1D70B57128C01BE)
Полное имя : D:\Фильмы\Азиатские\Клан Токио\Tokyo Tribe.2014.BDRip-AVC.MKV.1400MB. rip by [VLADO_G].mkv
Формат : Matroska
Версия формата : Version 4 / Version 2
Размер файла : 1,42 Гбайт
Продолжительность : 1 ч. 56 м.
Общий поток : 1741 Кбит/сек
Название фильма : Tokyo Tribe.2014.BDRip.MKV.1400MB. rip by [VLADO_G]
Дата кодирования : UTC 2015-02-15 10:35:50
Программа кодирования : mkvmerge v7.4.0 ('Circles') 64bit built on Dec 12 2014 12:19:56
Библиотека кодирования : XviD4PSP 7.0 / 55.48.100
COMMENT : MPEGTS > MKV 720x / H264 > X264 Custom / PCM_BLURAY > AC3
DURATION : 01:55:50.325000000
NUMBER_OF_FRAMES : 1794
NUMBER_OF_BYTES : 70234
_STATISTICS_WRITING_APP : mkvmerge v7.4.0 ('Circles') 64bit built on Dec 12 2014 12:19:56
_STATISTICS_WRITING_DATE_UTC : 2015-02-15 10:35:50
_STATISTICS_TAGS : BPS DURATION NUMBER_OF_FRAMES NUMBER_OF_BYTES
Видео
Идентификатор : 1
Формат : AVC
Формат/Информация : Advanced Video Codec
Профиль формата : High@L3.2
Параметр CABAC формата : Да
Параметр ReFrames формата : 8 кадров
Идентификатор кодека : V_MPEG4/ISO/AVC
Продолжительность : 1 ч. 56 м.
Битрейт : 1323 Кбит/сек
Номинальный битрейт : 1500 Кбит/сек
Ширина : 720 пикселей
Высота : 304 пикселя
Соотношение сторон : 2,40:1
Соотношение сторон в оригинале : 2,40:1
Режим частоты кадров : Постоянный
Частота кадров : 23,976 кадра/сек
Цветовое пространство : YUV
Субдискретизация насыщенности : 4:2:0
Битовая глубина : 8 бит
Тип развёртки : Прогрессивная
Бит/(Пиксели*Кадры) : 0.252
Размер потока : 1,08 Гбайт (76%)
Заголовок : Tokyo Tribe.2014.BDRip.MKV.1400MB. rip by [VLADO_G]
Библиотека кодирования : x264 core 144 r2525M 40bb568
Настройки программы : cabac=1 / ref=9 / deblock=1:0:0 / analyse=0x3:0x133 / me=umh / subme=9 / psy=1 / psy_rd=1.00:0.20 / mixed_ref=1 / me_range=24 / chroma_me=1 / trellis=1 / 8x8dct=1 / cqm=0 / deadzone=21,11 / fast_pskip=1 / chroma_qp_offset=-3 / threads=6 / lookahead_threads=1 / sliced_threads=0 / nr=0 / decimate=1 / interlaced=0 / bluray_compat=0 / constrained_intra=0 / bframes=9 / b_pyramid=1 / b_adapt=2 / b_bias=9 / direct=3 / weightb=1 / open_gop=0 / weightp=2 / keyint=230 / keyint_min=23 / scenecut=40 / intra_refresh=0 / rc_lookahead=230 / rc=cbr / mbtree=1 / bitrate=1500 / ratetol=1.0 / qcomp=0.60 / qpmin=10 / qpmax=51 / qpstep=4 / vbv_maxrate=1500 / vbv_bufsize=1500 / nal_hrd=none / filler=0 / ip_ratio=1.40 / aq=1:1.00
Default : Да
Forced : Нет
DURATION : 01:56:21.016000000
NUMBER_OF_FRAMES : 167377
NUMBER_OF_BYTES : 1182926000
_STATISTICS_WRITING_APP : mkvmerge v7.4.0 ('Circles') 64bit built on Dec 12 2014 12:19:56
_STATISTICS_WRITING_DATE_UTC : 2015-02-15 10:35:50
_STATISTICS_TAGS : BPS DURATION NUMBER_OF_FRAMES NUMBER_OF_BYTES
Аудио
Идентификатор : 2
Формат : AC-3
Формат/Информация : Audio Coding 3
Расширение режима : CM (complete main)
Параметр Endianness формата : Big
Идентификатор кодека : A_AC3
Продолжительность : 1 ч. 56 м.
Вид битрейта : Постоянный
Битрейт : 384 Кбит/сек
Каналы : 6 каналов
Расположение каналов : Front: L C R, Side: L R, LFE
Частота : 48,0 КГц
Битовая глубина : 16 бит
Метод сжатия : С потерями
Задержка видео : -5 мс.
Размер потока : 320 Мбайт (22%)
Заголовок : Tokyo Tribe.2014.BDRip.MKV.1400MB. rip by [VLADO_G]
Default : Да
Forced : Нет
DURATION : 01:56:21.024000000
NUMBER_OF_FRAMES : 218157
NUMBER_OF_BYTES : 335089152
_STATISTICS_WRITING_APP : mkvmerge v7.4.0 ('Circles') 64bit built on Dec 12 2014 12:19:56
_STATISTICS_WRITING_DATE_UTC : 2015-02-15 10:35:50
_STATISTICS_TAGS : BPS DURATION NUMBER_OF_FRAMES NUMBER_OF_BYTES
Текст
Идентификатор : 3
Формат : UTF-8
Идентификатор кодека : S_TEXT/UTF8
Идентификатор кодека/Информация : UTF-8 Plain Text
Заголовок : Tokyo Tribe.2014.BDRip.MKV.1400MB. rip by [VLADO_G]
Язык : Russian
Default : Да
Forced : Нет
Скриншот c названием фильма Скриншоты
Скачать

Скачать торрент! Клан Токио / Банды Токио / Tokyo Tribe (Сион Соно / Sion Sono) [2014, Япония, фантастика, драма, BDRip-AVC] original Jap + Sub (rus)

Как скачивать? · Что такое торрент? · Рейтинг и ограничения

Сайт не распространяет и не хранит электронные версии произведений, а лишь предоставляет доступ к создаваемому пользователями каталогу ссылок на торрент-файлы, которые содержат только списки хеш-сумм

[Профиль] [ЛС]
Показать сообщения:    
Ответить на тему

Текущее время: Сегодня 18:17

Часовой пояс: GMT + 4



Вы не можете начинать темы
Вы не можете отвечать на сообщения
Вы не можете редактировать свои сообщения
Вы не можете удалять свои сообщения
Вы не можете голосовать в опросах
Вы не можете прикреплять файлы к сообщениям
Вы не можете скачивать файлы