Убийства во Фьелльбакке 6: В глазах смотрящего / Fjällbackamorden: I betraktarens öga / In the Eye of the Beholder (Йорген Бергмарк / Jörgen Bergmark) [2012, Швеция, триллер, детектив, криминал, BDRip 720p] VO + Sub Rus, Eng + Original

Ответить на тему
 
Автор Сообщение

user ®

Стаж: 7 лет 7 месяцев

Сообщений: 20008

Пост Пост: #1 от 17-Фев-2015 00:03

[Цитировать]

Убийства во Фьелльбакке 6: В глазах смотрящего / Fjällbackamorden: I betraktarens öga / In the Eye of the Beholder
Страна: Швеция
Жанр: триллер, детектив, криминал
Год выпуска: 2012
Продолжительность: 01:28:15
Перевод: Одноголосый закадровый Datynet
Cубтитры: русские (kon2011 [Константин Ломов]), английские (Ingrid)
Оригинальная аудиодорожка: шведский
Режиссер: Йорген Бергмарк / Jörgen Bergmark
В ролях: Клаудия Галли, Ричард Ульфзэтер, Эллен Стенман Горанссон, Памела Кортес Бруна, Леннарт Якель, Анн Вестин, Симон Броден, Лукас Броден, София Зуаги, Пер Морберг...
Описание: Данный фильм является последним шестым по счету из серии «Убийства во Фьелльбакке», который был экранизирован по роману Камиллы Лэкберг.
Анна, сестра Эрики, приезжает в город, и в то же самое время в замок Фьелльбакка на съёмки прибывает телевизионная программа "Антиквариат в кубе". Когда Анна сталкивается с ведущим этого шоу Клаесом Вагером, промелькнувшая между ними искра быстро переходит во флирт. В ходе подготовки к съёмкам, в замке Анна находит Линду Хэмрин без сознания от передозировки лекарств. Эрика с Патриком оказываются втянуты в это дело, когда днём позже убивают человека, Хассе Веннермана. Слухи об интрижке, приведшей к передозировке Линды, начинают разрастаться в большой конфликт. К тому же исчезает старая картина, которую Хассе Веннерман привёз на антикварное шоу, а когда её обнаруживают среди вещей Анны, для Эрики наступают непростые времена, чтобы попытаться доказать невиновность своей сестры...
Сэмпл: http://multi-up.com/1032998
Тип релиза: BDRip 720p
Контейнер: MKV
Видео: AVC at 5 559 Kbps Aspect : 1280 x 720 (1.778) at 25.000 fps
Аудио: AC3, 48 kHz, 2 ch, 192 kbps [Russian]
Аудио 2: DTS at 1 509 Kbps 6 channels, 48.0 KHz [Sweden]
Формат субтитров: softsub (SRT)
MediaInfo
General
Unique ID : 243505612550607207872742780768144616846 (0xB731799F16CF7E70ACD97B53B6406D8E)
Complete name : H:\RIP\Fjallbackamorden.2013.COMPLETE.SWEDiSH.720p.BluRay.x264-iMSORNY\I.Betraktarens.Oga.2013.SWEDiSH.720p.BluRay.x264-WaLMaRT.mkv
Format : Matroska
Format version : Version 4 / Version 2
File size : 4.48 GiB
Duration : 1h 28mn
Overall bit rate mode : Variable
Overall bit rate : 7 263 Kbps
Movie name : video720p
Encoded date : UTC 2015-02-14 19:29:15
Writing application : mkvmerge v7.6.0 ('Garden of Dreams') 64bit built on Feb 8 2015 13:04:34
Writing library : libebml v1.3.1 + libmatroska v1.4.2
DURATION : 01:25:27.674000000
NUMBER_OF_FRAMES : 759
NUMBER_OF_BYTES : 30613
_STATISTICS_WRITING_APP : mkvmerge v7.6.0 ('Garden of Dreams') 64bit built on Feb 8 2015 13:04:34
_STATISTICS_WRITING_DATE_UTC : 2015-02-14 19:29:15
_STATISTICS_TAGS : BPS DURATION NUMBER_OF_FRAMES NUMBER_OF_BYTES
Video
ID : 1
Format : AVC
Format/Info : Advanced Video Codec
Format profile : High@L4.1
Format settings, CABAC : Yes
Format settings, ReFrames : 5 frames
Codec ID : V_MPEG4/ISO/AVC
Duration : 1h 28mn
Bit rate mode : Variable
Bit rate : 5 559 Kbps
Maximum bit rate : 62.5 Mbps
Width : 1 280 pixels
Height : 720 pixels
Display aspect ratio : 16:9
Frame rate mode : Constant
Frame rate : 25.000 fps
Color space : YUV
Chroma subsampling : 4:2:0
Bit depth : 8 bits
Scan type : Progressive
Bits/(Pixel*Frame) : 0.241
Stream size : 3.34 GiB (75%)
Writing library : x264 core 140 r2377 1ca7bb9
Encoding settings : cabac=1 / ref=5 / deblock=1:0:0 / analyse=0x3:0x113 / me=umh / subme=8 / psy=1 / psy_rd=1.00:0.00 / mixed_ref=1 / me_range=16 / chroma_me=1 / trellis=1 / 8x8dct=1 / cqm=0 / deadzone=21,11 / fast_pskip=1 / chroma_qp_offset=-2 / threads=12 / lookahead_threads=2 / sliced_threads=0 / nr=0 / decimate=1 / interlaced=0 / bluray_compat=0 / constrained_intra=0 / bframes=3 / b_pyramid=0 / b_adapt=2 / b_bias=0 / direct=3 / weightb=1 / open_gop=0 / weightp=2 / keyint=250 / keyint_min=25 / scenecut=40 / intra_refresh=0 / rc_lookahead=50 / rc=2pass / mbtree=1 / bitrate=5559 / ratetol=1.0 / qcomp=0.60 / qpmin=0 / qpmax=69 / qpstep=4 / cplxblur=20.0 / qblur=0.5 / vbv_maxrate=62500 / vbv_bufsize=62500 / nal_hrd=vbr / filler=0 / ip_ratio=1.40 / aq=1:1.00
Default : Yes
Forced : No
Audio #1
ID : 2
Format : AC-3
Format/Info : Audio Coding 3
Mode extension : CM (complete main)
Format settings, Endianness : Big
Codec ID : A_AC3
Duration : 1h 28mn
Bit rate mode : Constant
Bit rate : 192 Kbps
Channel(s) : 2 channels
Channel positions : Front: L R
Sampling rate : 48.0 KHz
Bit depth : 16 bits
Compression mode : Lossy
Stream size : 121 MiB (3%)
Language : Russian
Default : Yes
Forced : No
Audio #2
ID : 3
Format : DTS
Format/Info : Digital Theater Systems
Mode : 16
Format settings, Endianness : Big
Codec ID : A_DTS
Duration : 1h 28mn
Bit rate mode : Constant
Bit rate : 1 509 Kbps
Channel(s) : 6 channels
Channel positions : Front: L C R, Side: L R, LFE
Sampling rate : 48.0 KHz
Bit depth : 24 bits
Compression mode : Lossy
Stream size : 953 MiB (21%)
Language : Swedish
Default : No
Forced : No
Text #1
ID : 4
Format : UTF-8
Codec ID : S_TEXT/UTF8
Codec ID/Info : UTF-8 Plain Text
Language : Russian
Default : No
Forced : No
Text #2
ID : 5
Format : UTF-8
Codec ID : S_TEXT/UTF8
Codec ID/Info : UTF-8 Plain Text
Language : English
Default : No
Forced : No
Menu
00:00:00.000 : en:00:00:00.000
00:09:59.800 : en:00:09:59.800
00:19:59.880 : en:00:19:59.880
00:29:59.960 : en:00:29:59.960
00:39:59.960 : en:00:39:59.960
00:50:00.000 : en:00:50:00.000
00:59:59.680 : en:00:59:59.680
01:10:00.000 : en:01:10:00.000
01:19:59.560 : en:01:19:59.560
Скриншоты
Скачать

Скачать торрент!

Как скачивать? · Что такое торрент? · Рейтинг и ограничения

Сайт не распространяет и не хранит электронные версии произведений, а лишь предоставляет доступ к создаваемому пользователями каталогу ссылок на торрент-файлы, которые содержат только списки хеш-сумм

[Профиль] [ЛС]
Показать сообщения:    
Ответить на тему

Текущее время: Сегодня 17:41

Часовой пояс: GMT + 4



Вы не можете начинать темы
Вы не можете отвечать на сообщения
Вы не можете редактировать свои сообщения
Вы не можете удалять свои сообщения
Вы не можете голосовать в опросах
Вы не можете прикреплять файлы к сообщениям
Вы не можете скачивать файлы