Азбука жизни / Рождённый в Америке растерянный индиец / ABCD: American-Born Confused Desi (Мартин Праккат / Martin Prakkat) [2013, Индия, Комедия, DVDRip-AVC] MVO (Red Media)

Ответить на тему
 
Автор Сообщение

user ®

Стаж: 12 лет

Сообщений: 15092

Пост Пост: #1 от 16-Фев-2015 13:33

[Цитировать]

Азбука жизни / Рождённый в Америке растерянный индиец / ABCD: American-Born Confused Desi
Страна: Индия
Жанр: Комедия
Год выпуска: 2013
Продолжительность: 02:45:47
Перевод: Профессиональный (многоголосый закадровый) Red Media
Cубтитры: нет
Режиссер: Мартин Праккат / Martin Prakkat
В ролях: Дулкар Салман, Джейкоб Грегори, Лалу Алекс, Товино Томас, Апарна Гопинат, Энтони Теккек
Описание: Одним прекрасным днем два типичных представителя "золотой молодежи", привыкшие к папочкиным миллионам, обеспечивающим их роскошную жизнь, в которой есть лишь машины, девочки, ночные клубы, оказываются в Индии, где, впрочем, с большими деньгами жить не хуже, чем в их родном Нью-Йорке. Но как быть, если денег вдруг не станет? Почему не станет? Как парней занесло в Индию? Чем все закончится?
Доп. информация: Релиз: Кинозал
Сведение звука: oktober (Спасибо!)
Сэмпл: http://multi-up.com/1033251
Качество видео: DVDRip-AVC
Формат видео: MKV
Видео: 720x304 (2.368:1), 23.976 fps, AVC, ~ 1030 Kbps, 0.196 bits/pixel
Аудио: Русский, 48.0 KHz, АС3, 2 ch, 128 Kbps
MediaInfo
General
Complete name : F:\Azbuka.Zhizni.2013.DVDRip.X264.oktober.mkv
Format : Matroska
File size : 1.37 GiB
Duration : 2h 45mn
Overall bit rate : 1 182 Kbps
Encoded date : UTC 2015-02-02 14:50:09
Writing application : mkvmerge v5.0.0 ('Die Wahre Liebe') built on Sep 25 2011 20:33:49
Writing library : libebml v1.2.2 + libmatroska v1.3.0
Video
ID : 1
Format : AVC
Format/Info : Advanced Video Codec
Format profile : High@L3.0
Format settings, CABAC : Yes
Format settings, ReFrames : 5 frames
Muxing mode : Container profile=Unknown@3.0
Codec ID : V_MPEG4/ISO/AVC
Duration : 2h 45mn
Bit rate : 1 030 Kbps
Nominal bit rate : 1 055 Kbps
Width : 720 pixels
Height : 304 pixels
Display aspect ratio : 2.35
Frame rate : 23.976 fps
Resolution : 24 bits
Colorimetry : 4:2:0
Scan type : Progressive
Bits/(Pixel*Frame) : 0.196
Stream size : 1.19 GiB (87%)
Writing library : x264 core 125 r2200 999b753
Encoding settings : cabac=1 / ref=5 / deblock=1:-1:-1 / analyse=0x3:0x113 / me=umh / subme=8 / psy=1 / psy_rd=1.00:0.10 / mixed_ref=1 / me_range=16 / chroma_me=1 / trellis=1 / 8x8dct=1 / cqm=0 / deadzone=21,11 / fast_pskip=1 / chroma_qp_offset=-3 / threads=6 / lookahead_threads=1 / sliced_threads=0 / nr=0 / decimate=1 / interlaced=0 / bluray_compat=0 / constrained_intra=0 / bframes=3 / b_pyramid=2 / b_adapt=2 / b_bias=0 / direct=3 / weightb=1 / open_gop=0 / weightp=2 / keyint=250 / keyint_min=23 / scenecut=40 / intra_refresh=0 / rc_lookahead=50 / rc=abr / mbtree=1 / bitrate=1055 / ratetol=1.0 / qcomp=0.60 / qpmin=0 / qpmax=69 / qpstep=4 / ip_ratio=1.40 / aq=1:1.00
Language : Russian
Audio
ID : 2
Format : AC-3
Format/Info : Audio Coding 3
Codec ID : A_AC3
Duration : 2h 45mn
Bit rate mode : Constant
Bit rate : 128 Kbps
Channel(s) : 2 channels
Channel positions : L R
Sampling rate : 48.0 KHz
Stream size : 152 MiB (11%)
Language : Russian
Скриншот c названием фильма Скриншоты
Скачать

Скачать торрент! Азбука жизни / Рождённый в Америке растерянный индиец / ABCD: American-Born Confused Desi (Мартин Праккат / Martin Prakkat) [2013, Индия, Комедия, DVDRip-AVC] MVO (Red Media)

Как скачивать? · Что такое торрент? · Рейтинг и ограничения

Сайт не распространяет и не хранит электронные версии произведений, а лишь предоставляет доступ к создаваемому пользователями каталогу ссылок на торрент-файлы, которые содержат только списки хеш-сумм

[Профиль] [ЛС]
Показать сообщения:    
Ответить на тему

Текущее время: Сегодня 06:31

Часовой пояс: GMT + 4



Вы не можете начинать темы
Вы не можете отвечать на сообщения
Вы не можете редактировать свои сообщения
Вы не можете удалять свои сообщения
Вы не можете голосовать в опросах
Вы не можете прикреплять файлы к сообщениям
Вы не можете скачивать файлы