Самый лучший фильм 2 (Олег Фомин) [2009, комедия, пародия, DVDRip-AVC]

Ответить на тему
 
Автор Сообщение

user ®

Стаж: 7 лет 7 месяцев

Сообщений: 20008

Пост Пост: #1 от 16-Фев-2015 13:33

[Цитировать]

Самый лучший фильм 2
Жанр: комедия, пародия
Год выпуска: 2009
Продолжительность: 01:21:36
Режиссёр: Олег Фомин
В ролях: Тимур Батрутдинов, Гарик Харламов, Дмитрий Хрусталев, Олег Верещагин, Михаил Галустян, Дмитрий Нагиев, Александр Баширов, Сергей Лазарев, Екатерина Конисевич, Татьяна Лютаева...
Описание: Четверо закадычных друзей — Моряк, Актер, Мажор и Димати — после долгой разлуки встречаются в московском кафе отметить день рождения Мажора. На сей раз у них есть наличные, чтобы расплатиться с официанткой. И бегать по городу в поисках денег они будут совершенно по другой причине. Мажора похитили и требуют выкуп — миллион евро.
Чем друзья будут расплачиваться с бандитами, кто найдет новую любовь, а вместе с ней и приключения на все органы жизнедеятельности, кому придется испытать все тяготы сложного пути шоу-бизнеса к популярности, каково рэпперу кавказской наружности гулять одному по безлюдным улицам?! Но все это впереди, а пока они молоды, красивы, полны сил, надежд и ждут приключений!
Сэмпл: http://multi-up.com/1033262
Качество видео: DVDRip-AVC [url=http://***/forum/viewtopic.php?t=2771366]Исходник[/url]
Формат видео: MKV
Видео: 716x336 (2.25:1) @ 764x336, 25.000 fps, AVC, ~2150 Kbps, 0.357 bits/pixel
Аудио: 48.0 KHz, AC3, 6 ch, 384 Kbps

Log
avs4x264.exe: -L x264_64.exe --pass 2 --bitrate 2150 --preset medium --ref 10 --deblock -1:-1 --merange 32 --bframes 10 --direct auto --b-adapt 2 --trellis 2 --no-fast-pskip --psy-rd 1.00:0.10 --partitions all --subme 10 --me umh --rc-lookahead 50 --sar 16:15 --stats
raw [info]: 716x336p 16:15 @ 25/1 fps (cfr)
x264 [info]: using SAR=16/15
x264 [info]: using cpu capabilities: MMX2 SSE2Fast LZCNT
x264 [info]: profile High, level 3.1
x264 [info]: frame I:1125 Avg QP:15.19 size: 65224
x264 [info]: frame P:27999 Avg QP:18.22 size: 24438
x264 [info]: frame B:93277 Avg QP:21.89 size: 5978
x264 [info]: consecutive B-frames: 2.6% 3.0% 11.8% 21.9% 13.7% 40.6% 3.1% 1.1% 0.9% 0.7% 0.7%
x264 [info]: mb I I16..4: 6.5% 66.1% 27.4%
x264 [info]: mb P I16..4: 0.9% 11.6% 2.5% P16..4: 30.0% 24.0% 21.3% 2.1% 0.8% skip: 6.7%
x264 [info]: mb B I16..4: 0.1% 1.3% 0.4% B16..8: 32.4% 13.6% 5.1% direct: 8.3% skip:38.7% L0:35.2% L1:36.0% BI:28.8%
x264 [info]: 8x8 transform intra:74.3% inter:61.3%
x264 [info]: direct mvs spatial:97.3% temporal:2.7%
x264 [info]: coded y,uvDC,uvAC intra: 92.0% 92.8% 82.4% inter: 33.3% 35.1% 17.9%
x264 [info]: i16 v,h,dc,p: 53% 13% 11% 22%
x264 [info]: i8 v,h,dc,ddl,ddr,vr,hd,vl,hu: 15% 11% 9% 7% 11% 12% 11% 11% 12%
x264 [info]: i4 v,h,dc,ddl,ddr,vr,hd,vl,hu: 12% 12% 5% 8% 13% 13% 13% 11% 13%
x264 [info]: i8c dc,h,v,p: 47% 17% 19% 17%
x264 [info]: Weighted P-Frames: Y:3.8% UV:1.6%
x264 [info]: ref P L0: 42.7% 16.1% 19.2% 4.7% 5.5% 2.8% 3.5% 1.6% 2.1% 1.5% 0.3% 0.0%
x264 [info]: ref B L0: 80.4% 10.4% 3.3% 1.9% 1.2% 1.1% 0.9% 0.4% 0.2%
x264 [info]: ref B L1: 95.4% 4.6%
x264 [info]: kb/s:2149.06
x264 [total]: encoded 122401 frames, 15.84 fps, 2149.06 kb/s
MediaInfo
General
Unique ID : 250707376690843712837034966901699179672 (0xBC9C7C01F366C1399CA88AE22CA0F498)
Complete name : C:\Самый лучший фильм 2.mkv
Format : Matroska
Format version : Version 4 / Version 2
File size : 1.44 GiB
Duration : 1h 21mn
Overall bit rate : 2 535 Kbps
Encoded date : UTC 2015-02-15 17:45:55
Writing application : mkvmerge v7.5.0 ('Glass Culture') 64bit built on Jan 4 2015 16:48:44
Writing library : libebml v1.3.1 + libmatroska v1.4.2
DURATION : 01:21:36.032000000
NUMBER_OF_FRAMES : 153001
NUMBER_OF_BYTES : 235009536
_STATISTICS_WRITING_APP : mkvmerge v7.5.0 ('Glass Culture') 64bit built on Jan 4 2015 16:48:44
_STATISTICS_WRITING_DATE_UT : 2015-02-15 17:45:55
_STATISTICS_TAGS : BPS DURATION NUMBER_OF_FRAMES NUMBER_OF_BYTES
Video
ID : 1
Format : AVC
Format/Info : Advanced Video Codec
Format profile : High@L3.1
Format settings, CABAC : Yes
Format settings, ReFrames : 10 frames
Codec ID : V_MPEG4/ISO/AVC
Duration : 1h 21mn
Bit rate : 2 150 Kbps
Width : 716 pixels
Height : 336 pixels
Display aspect ratio : 2.25:1
Original display aspect rat : 2.25:1
Frame rate mode : Constant
Frame rate : 25.000 fps
Color space : YUV
Chroma subsampling : 4:2:0
Bit depth : 8 bits
Scan type : Progressive
Bits/(Pixel*Frame) : 0.357
Stream size : 1.20 GiB (83%)
Writing library : x264 core 144 r2525 40bb568
Encoding settings : cabac=1 / ref=10 / deblock=1:-1:-1 / analyse=0x3:0x133 / me=umh / subme=10 / psy=1 / psy_rd=1.00:0.10 / mixed_ref=1 / me_range=32 / chroma_me=1 / trellis=2 / 8x8dct=1 / cqm=0 / deadzone=21,11 / fast_pskip=0 / chroma_qp_offset=-3 / threads=6 / lookahead_threads=1 / sliced_threads=0 / nr=0 / decimate=1 / interlaced=0 / bluray_compat=0 / constrained_intra=0 / bframes=10 / b_pyramid=2 / b_adapt=2 / b_bias=0 / direct=3 / weightb=1 / open_gop=0 / weightp=2 / keyint=250 / keyint_min=25 / scenecut=40 / intra_refresh=0 / rc_lookahead=50 / rc=2pass / mbtree=1 / bitrate=2150 / ratetol=1.0 / qcomp=0.60 / qpmin=0 / qpmax=69 / qpstep=4 / cplxblur=20.0 / qblur=0.5 / ip_ratio=1.40 / aq=1:1.00
Language : Russian
Default : Yes
Forced : No
Audio
ID : 2
Format : AC-3
Format/Info : Audio Coding 3
Mode extension : CM (complete main)
Format settings, Endianness : Big
Codec ID : A_AC3
Duration : 1h 21mn
Bit rate mode : Constant
Bit rate : 384 Kbps
Channel(s) : 6 channels
Channel positions : Front: L C R, Side: L R, LFE
Sampling rate : 48.0 KHz
Bit depth : 16 bits
Compression mode : Lossy
Stream size : 224 MiB (15%)
Language : Russian
Default : Yes
Forced : No
Menu
00:00:00.000 : :Chapter 01
00:09:20.120 : :Chapter 02
00:15:28.600 : :Chapter 03
00:20:57.160 : :Chapter 04
00:26:18.960 : :Chapter 05
00:32:03.760 : :Chapter 06
00:39:05.800 : :Chapter 07
00:44:14.640 : :Chapter 08
00:49:20.720 : :Chapter 09
00:53:31.280 : :Chapter 10
01:06:23.720 : :Chapter 11
01:13:15.400 : :Chapter 12
Сравнение
[url=http://***/forum/viewtopic.php?t=2107448]http://***/forum/viewtopic.php?t=2107448[/url]


-[url=http://***/forum/viewtopic.php?t=2005656]http://***/forum/viewtopic.php?t=2005656[/url]


Скриншоты
Скачать

Скачать торрент!

Как скачивать? · Что такое торрент? · Рейтинг и ограничения

Сайт не распространяет и не хранит электронные версии произведений, а лишь предоставляет доступ к создаваемому пользователями каталогу ссылок на торрент-файлы, которые содержат только списки хеш-сумм

[Профиль] [ЛС]
Показать сообщения:    
Ответить на тему

Текущее время: Сегодня 08:04

Часовой пояс: GMT + 4



Вы не можете начинать темы
Вы не можете отвечать на сообщения
Вы не можете редактировать свои сообщения
Вы не можете удалять свои сообщения
Вы не можете голосовать в опросах
Вы не можете прикреплять файлы к сообщениям
Вы не можете скачивать файлы