Проект А / Project A / «A» gai wak (Джеки Чан / Jackie Chan, Саммо Кам-Бо Хунг / Sammo Kam-Bo Hung) [1983, Гонконг, боевик, комедия, DVDRip] [Международная Версия] MVO (Первый Канал) + DVO (НТВ)

Ответить на тему
 
Автор Сообщение

user ®

Стаж: 11 лет

Сообщений: 15151

Пост Пост: #1 от 16-Фев-2015 09:54

[Цитировать]

Проект А / Project A / «A» gai wak / Международная Версия
Год выпуска: 1983
Страна: Гонконг
Жанр: боевик, комедия
Продолжительность: 01:40:42
Перевод: Профессиональный (многоголосый закадровый) - Первый Канал
Перевод: Профессиональный (двухголосый закадровый) - НТВ
Cубтитры: нет
Режиссер: Джеки Чан / Jackie Chan, Саммо Кам-Бо Хунг / Sammo Kam-Bo Hung
В ролях: Джеки Чан (Sergeant Dragon Ma Yue Lung), Саммо Кам-Бо Хунг (Fei), Юэнь Бяо (Captain Tzu), Дик Вэй (Lor Sam Pau), Марс (Jaws), Винни Вонг (Winnie), По Таи (Tai), Нг Лонг Чунг (VIP Club Bouncer), Хой Сан Ли (...), Хой-Шан Кван (Captain Chi)-Мировая премьера: 22 декабря 1983-Описание: Гонконг начала 20 века. На китайском море свирепствуют пираты под предводительством зловещего пирата Ло. Все свои надежды правительство возлагает на специально разработанный план борьбы с пиратами под кодовым названием «Проект А». Но Ло всегда на шаг опережает власти, подрывает их корабли, и «проект» оказывается под угрозой срыва. Его выполнение берут на себя борец береговой охраны по кличке «Дракон» и его товарищи…-Доп. информация:
За исходник видео с DVD Remux (TF1DVD), запись перевода с Первого Канала в 2000-х годах через видеомагнитофон и оцифровку с видеокассеты большое спасибо [url=http://***/forum/profile.php?mode=viewprofile&u=8889426]ostrvskijjp[/url].
За запись перевода с телеканала НТВ в 90-х годах через видеомагнитофон и оцифровку с видеокассеты большое спасибо [url=http://***/forum/profile.php?mode=viewprofile&u=9359047]Lalola[/url].
Синхронизация переводов - [url=http://***/forum/profile.php?mode=viewprofile&u=3190918]JUSTKANT[/url].-Информация о релизе:
В этой раздаче международная версия фильма, которую как раз и показывали по ТВ. Даже начальные титры совсем другие, чем на DVD и BDRip изданиях. Перевод Первого Канала на трекере появляется впервые.
Текст читали:
Первый Канал - Сергей Быстрицкий, Андрей Градов и др.
НТВ - Рудольф Панков и Людмила Ильина.-[url=http://static.***] [/url]
Рейтинг

MPAA: PG-13 - Детям до 13 лет просмотр не желателен.-Качество видео: DVDRip
Формат видео: AVI -> //SAMPLE//
Видео: XviD, 720x304 (2,35:1), 23.976 fps, 1543 kbps avg
Аудио:
1 - 48 khz, AC3 Dolby Digital, 2/0 (L,R) ch, ~192 kbps [Первый Канал] VHSRip
2 - 48 khz, AC3 Dolby Digital, 2/0 (L,R) ch, ~192 kbps [НТВ] VHSRip-Обновление релиза от 16.02.2015. Причины:
BDRip заменён на DVDRip от международной версии фильма;
Добавлен в раздачу перевод Первого Канала, которого до этого в сети нигде не было.

Просьба перескачать торрент!

Mediainfo
Общее
Полное имя : D:\Релизы На Трекере\Проект А (Первый Канал + НТВ).avi
Формат : AVI
Формат/Информация : Audio Video Interleave
Размер файла : 1,44 Гбайт
Продолжительность : 1 ч. 40 м.
Общий поток : 2046 Кбит/сек
Программа кодирования : VirtualDubMod 1.5.10.2 (build 2540/release)
Библиотека кодирования : VirtualDubMod build 2540/release
Видео
Идентификатор : 0
Формат : MPEG-4 Visual
Профиль формата : Advanced Simple@L5
Параметр BVOP формата : 1
Параметр QPel формата : Нет
Параметр GMC формата : Без точки перехода
Параметр матрицы формата : Выборочная
Идентификатор кодека : XVID
Идентификатор кодека/Подсказка : XviD
Продолжительность : 1 ч. 40 м.
Битрейт : 1647 Кбит/сек
Ширина : 720 пикселей
Высота : 304 пикселя
Соотношение сторон : 2,35:1
Частота кадров : 25,000 кадров/сек
Цветовое пространство : YUV
Субдискретизация насыщенности : 4:2:0
Битовая глубина : 8 бит
Тип развёртки : Прогрессивная
Метод сжатия : С потерями
Бит/(Пиксели*Кадры) : 0.301
Размер потока : 1,16 Гбайт (81%)
Библиотека кодирования : XviD 1.2.1 (UTC 2008-12-04)
Аудио #1
Идентификатор : 1
Формат : AC-3
Формат/Информация : Audio Coding 3
Расширение режима : CM (complete main)
Параметр Endianness формата : Big
Идентификатор кодека : 2000
Продолжительность : 1 ч. 40 м.
Вид битрейта : Постоянный
Битрейт : 192 Кбит/сек
Каналы : 2 канала
Расположение каналов : Front: L R
Частота : 48,0 КГц
Битовая глубина : 16 бит
Метод сжатия : С потерями
Размер потока : 138 Мбайт (9%)
Выравнивание : Разделение по промежуткам
Продолжительность промежутка : 40 мс. (1,00 видеокадр)
Время предзагрузки промежутка : 500 мс.
Аудио #2
Идентификатор : 2
Формат : AC-3
Формат/Информация : Audio Coding 3
Расширение режима : CM (complete main)
Параметр Endianness формата : Big
Идентификатор кодека : 2000
Продолжительность : 1 ч. 40 м.
Вид битрейта : Постоянный
Битрейт : 192 Кбит/сек
Каналы : 2 канала
Расположение каналов : Front: L R
Частота : 48,0 КГц
Битовая глубина : 16 бит
Метод сжатия : С потерями
Размер потока : 138 Мбайт (9%)
Выравнивание : Разделение по промежуткам
Продолжительность промежутка : 40 мс. (1,00 видеокадр)
Время предзагрузки промежутка : 500 мс.
Скриншот c названием фильма Скриншоты
Скачать

Скачать торрент! Проект А / Project A / «A» gai wak (Джеки Чан / Jackie Chan, Саммо Кам-Бо Хунг / Sammo Kam-Bo Hung) [1983, Гонконг, боевик, комедия, DVDRip] [Международная Версия] MVO (Первый Канал) + DVO (НТВ)

Как скачивать? · Что такое торрент? · Рейтинг и ограничения

Сайт не распространяет и не хранит электронные версии произведений, а лишь предоставляет доступ к создаваемому пользователями каталогу ссылок на торрент-файлы, которые содержат только списки хеш-сумм

[Профиль] [ЛС]
Показать сообщения:    
Ответить на тему

Текущее время: Сегодня 17:09

Часовой пояс: GMT + 4



Вы не можете начинать темы
Вы не можете отвечать на сообщения
Вы не можете редактировать свои сообщения
Вы не можете удалять свои сообщения
Вы не можете голосовать в опросах
Вы не можете прикреплять файлы к сообщениям
Вы не можете скачивать файлы