Восход / Rise (Мэк Линдон / Mack Lindon) [2015, Австралия, Драма, криминал, WEB-DLRip] DVO (RAIM & NASTR)

Ответить на тему
 
Автор Сообщение

user ®

Стаж: 7 лет 7 месяцев

Сообщений: 20008

Пост Пост: #1 от 15-Фев-2015 23:54

[Цитировать]

Восход / Rise
Страна: Австралия
Жанр: Драма, криминал
Год выпуска: 2015
Продолжительность: 01:42:41
Перевод: Любительский (двухголосый, закадровый) [RAIM & NASTR]
Cубтитры: нет
Режиссер: Мэк Линдон / Mack Lindon
В ролях: Джессика Грин, Стефани Мэй, Мартин Сакс, Рис Милн, Tade Adepoyibi, Камерон Колфилд, Джемма Лорелл, Джеймс Кирни, Курт Стоуэрс, Рози Кеог
Описание: История, основанная на реальных событиях, о молодом медбрате, ошибочно осужденном в изнасиловании. Лишенный своей карьеры и свободы, Уилл вынужден выживать в тюрьме строгого режима. Сюжет фильма развивается вокруг маловероятной дружбы с закаленным и опасным преступником Джимми и правовой битвы известного адвоката, который должен вернуть Уиллу его честное имя, найдя доказательства его невиновности..
Дополнительная информация: Фильм основан на реальных событиях
Сэмпл: http://multi-up.com/1033163
Качество видео: WEB-DLRip
Формат видео: AVI
Видео: 688x288 (2.39:1), 24.000 fps, XviD build 73 ~879 kbps avg, 0.19 bit/pixel
Аудио: 48 kHz, MPEG Layer 3, 2 ch, ~128.00 kbps avg
MediaInfo
Формат : AVI
Формат/Информация : Audio Video Interleave
Размер файла : 747 Мбайт
Продолжительность : 1 ч. 42 м.
Общий поток : 1017 Кбит/сек
Программа кодирования : VirtualDubMod 1.5.10.3 | www.virtualdub-fr.org || (build 2550/release)
Библиотека кодирования : VirtualDubMod build 2550/release
Видео
Идентификатор : 0
Формат : MPEG-4 Visual
Профиль формата : Advanced Simple@L5
Параметр BVOP формата : 2
Параметр QPel формата : Нет
Параметр GMC формата : Без точки перехода
Параметр матрицы формата : Выборочная
Идентификатор кодека : XVID
Идентификатор кодека/Подсказка : XviD
Продолжительность : 1 ч. 42 м.
Битрейт : 879 Кбит/сек
Ширина : 688 пикселей
Высота : 288 пикселей
Соотношение сторон : 2,40:1
Частота кадров : 24,000 кадра/сек
Цветовое пространство : YUV
Субдискретизация насыщенности : 4:2:0
Битовая глубина : 8 бит
Тип развёртки : Прогрессивная
Метод сжатия : С потерями
Бит/(Пиксели*Кадры) : 0.185
Размер потока : 646 Мбайт (86%)
Библиотека кодирования : XviD 73
Аудио
Идентификатор : 1
Формат : MPEG Audio
Версия формата : Version 1
Профиль формата : Layer 3
Идентификатор кодека : 55
Идентификатор кодека/Подсказка : MP3
Продолжительность : 1 ч. 42 м.
Вид битрейта : Постоянный
Битрейт : 128 Кбит/сек
Каналы : 2 канала
Частота : 48,0 КГц
Метод сжатия : С потерями
Размер потока : 94,0 Мбайт (13%)
Выравнивание : Соединение по промежуткам
Продолжительность промежутка : 42 мс. (1,00 видеокадр)
Время предзагрузки промежутка : 504 мс.
Библиотека кодирования : LAME3.99r
Настройки программы : -m s -V 4 -q 2 -lowpass 17 -b 128
Скриншоты
Скачать

Скачать торрент!

Как скачивать? · Что такое торрент? · Рейтинг и ограничения

Сайт не распространяет и не хранит электронные версии произведений, а лишь предоставляет доступ к создаваемому пользователями каталогу ссылок на торрент-файлы, которые содержат только списки хеш-сумм

[Профиль] [ЛС]
Показать сообщения:    
Ответить на тему

Текущее время: Сегодня 14:12

Часовой пояс: GMT + 4



Вы не можете начинать темы
Вы не можете отвечать на сообщения
Вы не можете редактировать свои сообщения
Вы не можете удалять свои сообщения
Вы не можете голосовать в опросах
Вы не можете прикреплять файлы к сообщениям
Вы не можете скачивать файлы