Проклятие 2 / Ju-on 2 (Такаси Симидзу / Takashi Shimizu) [2003, Япония, ужасы, драма, BDRip] MVO (R5)

Ответить на тему
 
Автор Сообщение

user ®

Стаж: 13 лет

Сообщений: 15071

Пост Пост: #1 от 15-Фев-2015 19:54

[Цитировать]

Проклятие 2 / Ju-on 2- Год выпуска: 2003
Страна: Япония
Жанр: ужасы, драма
Продолжительность: 01:31:56
Перевод: Профессиональный (многоголосый, закадровый) R5
Cубтитры: нет-Режиссер: Такаси Симидзу / Takashi Shimizu
В ролях: Норико Сакаи, Тихару Нияма, Кей Хория, Юи Итикава, Аюму Саито, Эми Ямамото, Эрика Куроиси, Каору Мидзуки, Шинобу Юки, Такако Фудзи
О фильме: Проклятье, рожденное разъяренным разумом умирающего человека, не может сгинуть бесследно. Образ невинно загубленной души вновь и вновь является каждому, кто пытается постичь тайны ее страшной судьбы, замораживая кровь в жилах несчастных, ледяным ужасом неизбежного.
Спустя некоторое время после необъяснимых событий в проклятом доме, где разыгравшаяся много лет назад кровавая драма, положила начало цепи страшных смертей и таинственных исчезновений, очаровательная Кийоко, японская «королева ужасов», одержима идеей снять в этом зловещем месте фильм-расследование.
Она уверена, что создает сенсацию, и даже жуткие и необъяснимые события, преследующие Кийоко с начала съемок, не в силах изменить ее роковых намерений, ставших смертным приговором для кинозвезды и всех, кто ее окружает…-Релиз:
Автор: sociolog_melvas
Качество: BDRip (источник: / BD-Remux / 1080p)
Формат: AVI
Видео: 704x384 (1.83:1), 23,976 fps, XviD build 65 ~1804 kbps avg, 0.28 bit/pixel
Аудио: 48 kHz, AC3 Dolby Digital, 3/2 (L,C,R,l,r) + LFE ch, ~448.00 kbps avg
Размер: 1487.20 Mb (1/3 DVD-R)
Скачать: Семпл-

Кадры из фильма
-
Mi
Формат : AVI
Формат/Информация : Audio Video Interleave
Размер файла : 1,45 Гбайт
Продолжительность : 1 ч. 31 м.
Общий поток : 2262 Кбит/сек
Название фильма : Проклятие 2 / Ju-on 2 (2003) BDRip
Режиссёр : sociolog_melvas
Жанр : ужасы, драма
Программа кодирования : VirtualDubMod 1.5.10.2 (build 2540/release)
Примечание : 12.02.2015
Видео
Идентификатор : 0
Формат : MPEG-4 Visual
Профиль формата : Advanced Simple@L5
Параметр BVOP формата : 1
Параметр QPel формата : Нет
Параметр GMC формата : Без точки перехода
Параметр матрицы формата : Выборочная
Идентификатор кодека : XVID
Идентификатор кодека/Подсказка : XviD
Продолжительность : 1 ч. 31 м.
Битрейт : 1804 Кбит/сек
Ширина : 704 пикселя
Высота : 384 пикселя
Соотношение сторон : 1,85:1
Частота кадров : 23,976 кадра/сек
Цветовое пространство : YUV
Субдискретизация насыщенности : 4:2:0
Битовая глубина : 8 бит
Тип развёртки : Прогрессивная
Метод сжатия : С потерями
Бит/(Пиксели*Кадры) : 0.278
Размер потока : 1,16 Гбайт (80%)
Библиотека кодирования : XviD 65
Аудио
Идентификатор : 1
Формат : AC-3
Формат/Информация : Audio Coding 3
Расширение режима : CM (complete main)
Параметр Endianness формата : Big
Идентификатор кодека : 2000
Продолжительность : 1 ч. 31 м.
Вид битрейта : Постоянный
Битрейт : 448 Кбит/сек
Каналы : 6 каналов
Расположение каналов : Front: L C R, Side: L R, LFE
Частота : 48,0 КГц
Битовая глубина : 16 бит
Метод сжатия : С потерями
Размер потока : 295 Мбайт (20%)
Выравнивание : Разделение по промежуткам
Продолжительность промежутка : 42 мс. (1,00 видеокадр)
Время предзагрузки промежутка : 500 мс.

-
Цитата:
• Исходный диск приобретен благодаря спонсорам: ivan_ser, Juve, serlim, Kenzojapan, tambov68, meverik1977, 37_region, Flint80, yarrga, irrlicht.
Скачать

Скачать торрент! Проклятие 2 / Ju-on 2 (Такаси Симидзу / Takashi Shimizu) [2003, Япония, ужасы, драма, BDRip] MVO (R5)

Как скачивать? · Что такое торрент? · Рейтинг и ограничения

Сайт не распространяет и не хранит электронные версии произведений, а лишь предоставляет доступ к создаваемому пользователями каталогу ссылок на торрент-файлы, которые содержат только списки хеш-сумм

[Профиль] [ЛС]
Показать сообщения:    
Ответить на тему

Текущее время: Сегодня 21:14

Часовой пояс: GMT + 4



Вы не можете начинать темы
Вы не можете отвечать на сообщения
Вы не можете редактировать свои сообщения
Вы не можете удалять свои сообщения
Вы не можете голосовать в опросах
Вы не можете прикреплять файлы к сообщениям
Вы не можете скачивать файлы