Мужчины, женщины и дети / Men, Women & Children (Джейсон Райтман / Jason Reitman) [2014, США, драма, комедия, BDRip 1080p] Dub + Sub Rus, Eng + Original Eng

Ответить на тему
 
Автор Сообщение

user ®

Стаж: 7 лет 7 месяцев

Сообщений: 20008

Пост Пост: #1 от 15-Фев-2015 19:54

[Цитировать]

Мужчины, женщины и дети / Men, Women & Children
Страна: США
Жанр: драма, комедия
Год выпуска: 2014
Продолжительность: 01:59:27
Перевод: Профессиональный (дублированный)
Cубтитры: Rus, Eng
Оригинальная аудиодорожка: английский
Режиссер: Джейсон Райтман / Jason Reitman
В ролях: Адам Сэндлер, Дженнифер Гарнер, Розмари ДеУитт, Джуди Грир, Дин Норрис, Эмма Томпсон, Тимоти Чаламет, Оливия Крочиккия, Кейтлин Девер, Энсел Элгорт
Описание: История о группе подростков и их родителях, которые пытаются понять, как интернет изменил их отношения, их связь, самооценку и любовь друг к другу.

Тип релиза: BDRip 1080p
Контейнер: MKV
Видео: MPEG-4 AVC, 17.7 Mбит/с, 1920x1080, 23,976 fps
Аудио: Rus, AC3, 640 kb/s (6 ch), 48 kHz
Аудио 2: Eng, DTS, 1510 kb/s (6 ch), 48 kHz
Формат субтитров: softsub (SRT)
MediaInfo
Format : Matroska
Format version : Version 4 / Version 2
File size : 16.9 GiB
Duration : 1h 59mn
Overall bit rate : 20.2 Mbps
Movie name : Tonik
Encoded date : UTC 2015-02-14 10:35:31
Writing application : mkvmerge v7.1.0 ('Good Love') 64bit built on Jul 27 2014 13:06:55
Writing library : libebml v1.3.0 + libmatroska v1.4.1
_STATISTICS_WRITING_APP : mkvmerge v7.1.0 ('Good Love') 64bit built on Jul 27 2014 13:06:55
_STATISTICS_WRITING_DATE_UTC : 2015-02-14 10:35:31
_STATISTICS_TAGS : BPS DURATION NUMBER_OF_FRAMES NUMBER_OF_BYTES
DURATION : 01:55:36.470000000
NUMBER_OF_FRAMES : 1481
NUMBER_OF_BYTES : 44216
Video
ID : 1
Format : AVC
Format/Info : Advanced Video Codec
Format profile : High@L4.1
Format settings, CABAC : Yes
Format settings, ReFrames : 4 frames
Codec ID : V_MPEG4/ISO/AVC
Duration : 1h 59mn
Bit rate : 17.7 Mbps
Width : 1 920 pixels
Height : 1 080 pixels
Display aspect ratio : 16:9
Frame rate mode : Constant
Frame rate : 23.976 fps
Color space : YUV
Chroma subsampling : 4:2:0
Bit depth : 8 bits
Scan type : Progressive
Bits/(Pixel*Frame) : 0.355
Stream size : 14.7 GiB (87%)
Writing library : x264 core 142 r2431kMod ac76440
Encoding settings : cabac=1 / ref=4 / deblock=1:-3:-3 / analyse=0x3:0x133 / me=umh / subme=11 / psy=1 / fade_compensate=0.00 / psy_rd=1.05:0.00 / mixed_ref=1 / me_range=24 / chroma_me=1 / trellis=2 / 8x8dct=1 / cqm=0 / deadzone=21,11 / fast_pskip=0 / chroma_qp_offset=-2 / threads=24 / lookahead_threads=4 / sliced_threads=0 / nr=0 / decimate=0 / interlaced=0 / bluray_compat=0 / constrained_intra=0 / fgo=0 / bframes=8 / b_pyramid=2 / b_adapt=2 / b_bias=0 / direct=3 / weightb=1 / open_gop=0 / weightp=2 / keyint=250 / keyint_min=23 / scenecut=40 / intra_refresh=0 / rc=crf / mbtree=0 / crf=16.5000 / qcomp=0.65 / qpmin=0 / qpmax=69 / qpstep=4 / ip_ratio=1.30 / pb_ratio=1.20 / aq=1:0.85
Language : English
Default : Yes
Forced : No
DURATION : 01:59:27.160000000
NUMBER_OF_FRAMES : 171840
NUMBER_OF_BYTES : 16182745538
_STATISTICS_WRITING_APP : mkvmerge v7.1.0 ('Good Love') 64bit built on Jul 27 2014 13:06:55
_STATISTICS_WRITING_DATE_UTC : 2015-02-14 10:35:31
_STATISTICS_TAGS : BPS DURATION NUMBER_OF_FRAMES NUMBER_OF_BYTES
Audio #1
ID : 2
Format : AC-3
Format/Info : Audio Coding 3
Mode extension : CM (complete main)
Format settings, Endianness : Big
Codec ID : A_AC3
Duration : 1h 59mn
Bit rate mode : Constant
Bit rate : 640 Kbps
Channel(s) : 6 channels
Channel positions : Front: L C R, Side: L R, LFE
Sampling rate : 48.0 KHz
Bit depth : 16 bits
Compression mode : Lossy
Stream size : 547 MiB (3%)
Language : Russian
Default : Yes
Forced : No
Audio #2
ID : 3
Format : DTS
Format/Info : Digital Theater Systems
Mode : 16
Format settings, Endianness : Big
Codec ID : A_DTS
Duration : 1h 59mn
Bit rate mode : Constant
Bit rate : 1 509 Kbps
Channel(s) : 6 channels
Channel positions : Front: L C R, Side: L R, LFE
Sampling rate : 48.0 KHz
Bit depth : 24 bits
Compression mode : Lossy
Stream size : 1.26 GiB (7%)
Language : English
Default : No
Forced : No
Text #1
ID : 4
Format : UTF-8
Codec ID : S_TEXT/UTF8
Codec ID/Info : UTF-8 Plain Text
Language : Russian
Default : No
Forced : No
Text #2
ID : 5
Format : UTF-8
Codec ID : S_TEXT/UTF8
Codec ID/Info : UTF-8 Plain Text
Language : English
Default : No
Forced : No
Text #3
ID : 6
Format : UTF-8
Codec ID : S_TEXT/UTF8
Codec ID/Info : UTF-8 Plain Text
Title : SDH
Language : English
Default : No
Forced : No
Menu
00:00:00.000 : en:00:00:00.000
00:05:44.094 : en:00:05:44.094
00:09:58.681 : en:00:09:58.681
00:14:15.813 : en:00:14:15.813
00:17:59.829 : en:00:17:59.829
00:21:30.873 : en:00:21:30.873
00:26:15.491 : en:00:26:15.491
00:30:14.813 : en:00:30:14.813
00:35:02.976 : en:00:35:02.976
00:45:45.326 : en:00:45:45.326
00:49:00.229 : en:00:49:00.229
00:53:56.900 : en:00:53:56.900
01:01:14.629 : en:01:01:14.629
01:06:36.159 : en:01:06:36.159
01:10:47.702 : en:01:10:47.702
01:19:38.691 : en:01:19:38.691
01:25:52.147 : en:01:25:52.147
01:28:48.573 : en:01:28:48.573
01:36:39.752 : en:01:36:39.752
01:48:45.477 : en:01:48:45.477
01:54:51.593 : en:01:54:51.593
Скриншоты
Скачать

Скачать торрент!

Как скачивать? · Что такое торрент? · Рейтинг и ограничения

Сайт не распространяет и не хранит электронные версии произведений, а лишь предоставляет доступ к создаваемому пользователями каталогу ссылок на торрент-файлы, которые содержат только списки хеш-сумм

[Профиль] [ЛС]
Показать сообщения:    
Ответить на тему

Текущее время: Сегодня 08:04

Часовой пояс: GMT + 4



Вы не можете начинать темы
Вы не можете отвечать на сообщения
Вы не можете редактировать свои сообщения
Вы не можете удалять свои сообщения
Вы не можете голосовать в опросах
Вы не можете прикреплять файлы к сообщениям
Вы не можете скачивать файлы