Всегда / Always (Стивен Спилберг / Steven Spielberg) [1989, США, фэнтези, драма, мелодрама, BDRip 720p] Dub + 2x DVO + 2x AVO (Ю. Живов, А. Гаврилов) + Original Eng + Sub Rus, Eng

Ответить на тему
 
Автор Сообщение

user ®

Стаж: 7 лет 7 месяцев

Сообщений: 20008

Пост Пост: #1 от 15-Фев-2015 16:24

[Цитировать]

Всегда / Always
Страна: США
Жанр: фэнтези, драма, мелодрама
Год выпуска: 1989
Продолжительность: 02:02:22
Перевод: Профессиональный (дублированный) Blu-Ray CEE
Перевод 2: Профессиональный (двухголосый закадровый)
Перевод 3: Профессиональный (двухголосый закадровый) Марина Иванова и Александр Власов
Перевод 4: Авторский (одноголосый закадровый) Юрий Живов
Перевод 5: Авторский (одноголосый закадровый) Андрей Гаврилов
Cубтитры: русские, английские
Оригинальная аудиодорожка: английский
Режиссер: Стивен Спилберг / Steven Spielberg
В ролях: Ричард Дрейфусс, Холли Хантер, Джон Гудман, Одри Хепберн, Брэд Джонсон, Робертс Блоссом, Кит Дэвид, Эд Ван Нюйс, Марг Хельгенбергер, Дейл Дай
Описание: Пит Сэндич — легендарная личность, лётчик-ас и человек отваги необыкновенной. У него была замечательная жизнь: интересная работа, любимая женщина и лучший друг. И вот однажды, ни секунды не сомневаясь, Пит жертвует этой жизнью, чтобы спасти товарища.
Но смерть забрала героя раньше, чем он успел убедиться в том, что с близкими ему людьми всё будет хорошо. И пилот возвращается, чтобы в этом убедиться, но уже… как призрак…

Сэмпл: http://multi-up.com/1032857
Тип релиза: BDRip 720p
Контейнер: MKV
Видео: MPEG4 Video (H264) 1280x694 (83:45) 23.976fps 5 700 Kbps
Аудио: Русский DTS / 2 ch / 48.0 KHz / 448 Kbps / Blu-Ray CEE
Аудио 2: Русский AC-3 / 2 ch / 48.0 KHz / 192 Kbps
Аудио 3: Русский AC-3 / 2 ch / 48.0 KHz / 192 Kbps / перевод Виталия Гордона, текст читают Марина Иванова и Александр Власов
Аудио 4: Русский DTS / 6 ch / 48.0 KHz / 1 509 Kbps / Юрий Живов
Аудио 5: Русский DTS / 6 ch / 48.0 KHz / 1 509 Kbps / Андрей Гаврилов
Аудио 6: Английский DTS / 6 ch / 48.0 KHz / 1 509 Kbps / Original
Формат субтитров: softsub (SRT)

MediaInfo
General
Unique ID : 212748936909811624958309971732382956882 (0xA00DF46F49A76B2C8966AC43D8513D52)
Complete name : D:\Always.1989.BDRip.720p.mkv
Format : Matroska
Format version : Version 4 / Version 2
File size : 9.46 GiB
Duration : 2h 2mn
Overall bit rate : 11.1 Mbps
Encoded date : UTC 2015-02-13 14:52:13
Writing application : mkvmerge v7.4.0 ('Circles') 64bit built on Dec 12 2014 12:19:56
Writing library : libebml v1.3.0 + libmatroska v1.4.1
_STATISTICS_WRITING_APP : mkvmerge v7.4.0 ('Circles') 64bit built on Dec 12 2014 12:19:56
_STATISTICS_WRITING_DATE_UTC : 2015-02-13 14:52:13
_STATISTICS_TAGS : BPS DURATION NUMBER_OF_FRAMES NUMBER_OF_BYTES
DURATION : 01:54:54.027000000
NUMBER_OF_FRAMES : 1163
NUMBER_OF_BYTES : 36714
Video
ID : 1
Format : AVC
Format/Info : Advanced Video Codec
Format profile : High@L4.1
Format settings, CABAC : Yes
Format settings, ReFrames : 9 frames
Codec ID : V_MPEG4/ISO/AVC
Duration : 2h 2mn
Bit rate : 5 700 Kbps
Width : 1 280 pixels
Height : 694 pixels
Display aspect ratio : 1.85:1
Frame rate mode : Constant
Frame rate : 23.976 fps
Color space : YUV
Chroma subsampling : 4:2:0
Bit depth : 8 bits
Scan type : Progressive
Bits/(Pixel*Frame) : 0.268
Stream size : 4.69 GiB (50%)
Title : MPEG-4AVC@High Profile L4.1, 24/1.001 fps @ 5700 kbps
Writing library : x264 core 142 r2479 dd79a61
Encoding settings : cabac=1 / ref=9 / deblock=1:-3:-3 / analyse=0x3:0x133 / me=umh / subme=11 / psy=1 / psy_rd=1.00:0.00 / mixed_ref=1 / me_range=32 / chroma_me=1 / trellis=2 / 8x8dct=1 / cqm=0 / deadzone=21,11 / fast_pskip=0 / chroma_qp_offset=-2 / threads=6 / lookahead_threads=1 / sliced_threads=0 / nr=0 / decimate=0 / interlaced=0 / bluray_compat=0 / constrained_intra=0 / bframes=6 / b_pyramid=2 / b_adapt=2 / b_bias=0 / direct=3 / weightb=1 / open_gop=0 / weightp=2 / keyint=240 / keyint_min=23 / scenecut=40 / intra_refresh=0 / rc_lookahead=60 / rc=2pass / mbtree=1 / bitrate=5700 / ratetol=1.0 / qcomp=0.60 / qpmin=0 / qpmax=69 / qpstep=4 / cplxblur=20.0 / qblur=0.5 / vbv_maxrate=22000 / vbv_bufsize=22000 / nal_hrd=none / filler=0 / ip_ratio=1.40 / aq=1:0.60
Language : English
Default : Yes
Forced : No
_STATISTICS_WRITING_APP : mkvmerge v7.4.0 ('Circles') 64bit built on Dec 12 2014 12:19:56
_STATISTICS_WRITING_DATE_UTC : 2015-02-13 14:52:13
_STATISTICS_TAGS : BPS DURATION NUMBER_OF_FRAMES NUMBER_OF_BYTES
DURATION : 02:02:22.460000000
NUMBER_OF_FRAMES : 176043
NUMBER_OF_BYTES : 5231406045
Audio #1
ID : 2
Format : DTS
Format/Info : Digital Theater Systems
Mode : 16
Format settings, Endianness : Big
Codec ID : A_DTS
Duration : 2h 2mn
Bit rate mode : Constant
Bit rate : 447 Kbps
Channel(s) : 2 channels
Channel positions : Front: L R
Sampling rate : 48.0 KHz
Bit depth : 24 bits
Compression mode : Lossy
Stream size : 391 MiB (4%)
Title : DUB CEE
Language : Russian
Default : Yes
Forced : No
Audio #2
ID : 3
Format : AC-3
Format/Info : Audio Coding 3
Mode extension : CM (complete main)
Format settings, Endianness : Big
Codec ID : A_AC3
Duration : 2h 2mn
Bit rate mode : Constant
Bit rate : 192 Kbps
Channel(s) : 2 channels
Channel positions : Front: L R
Sampling rate : 48.0 KHz
Bit depth : 16 bits
Compression mode : Lossy
Stream size : 168 MiB (2%)
Title : DVO
Language : Russian
Default : No
Forced : No
Audio #3
ID : 4
Format : AC-3
Format/Info : Audio Coding 3
Mode extension : CM (complete main)
Format settings, Endianness : Big
Codec ID : A_AC3
Duration : 2h 2mn
Bit rate mode : Constant
Bit rate : 192 Kbps
Channel(s) : 2 channels
Channel positions : Front: L R
Sampling rate : 48.0 KHz
Bit depth : 16 bits
Compression mode : Lossy
Stream size : 168 MiB (2%)
Title : DVO
Language : Russian
Default : No
Forced : No
Audio #4
ID : 5
Format : DTS
Format/Info : Digital Theater Systems
Mode : 16
Format settings, Endianness : Big
Codec ID : A_DTS
Duration : 2h 2mn
Bit rate mode : Constant
Bit rate : 1 509 Kbps
Channel(s) : 6 channels
Channel positions : Front: L C R, Side: L R, LFE
Sampling rate : 48.0 KHz
Bit depth : 24 bits
Compression mode : Lossy
Stream size : 1.29 GiB (14%)
Title : AVO (Ю. Живов)
Language : Russian
Default : No
Forced : No
Audio #5
ID : 6
Format : DTS
Format/Info : Digital Theater Systems
Mode : 16
Format settings, Endianness : Big
Codec ID : A_DTS
Duration : 2h 2mn
Bit rate mode : Constant
Bit rate : 1 509 Kbps
Channel(s) : 6 channels
Channel positions : Front: L C R, Side: L R, LFE
Sampling rate : 48.0 KHz
Bit depth : 24 bits
Compression mode : Lossy
Stream size : 1.29 GiB (14%)
Title : AVO (А. Гаврилов)
Language : Russian
Default : No
Forced : No
Audio #6
ID : 7
Format : DTS
Format/Info : Digital Theater Systems
Mode : 16
Format settings, Endianness : Big
Codec ID : A_DTS
Duration : 2h 2mn
Bit rate mode : Constant
Bit rate : 1 509 Kbps
Channel(s) : 6 channels
Channel positions : Front: L C R, Side: L R, LFE
Sampling rate : 48.0 KHz
Bit depth : 24 bits
Compression mode : Lossy
Stream size : 1.29 GiB (14%)
Title : English DTS-HD Core 5.1 @ 1509 kbps
Language : English
Default : No
Forced : No
Text #1
ID : 8
Format : UTF-8
Codec ID : S_TEXT/UTF8
Codec ID/Info : UTF-8 Plain Text
Language : Russian
Default : No
Forced : No
Text #2
ID : 9
Format : UTF-8
Codec ID : S_TEXT/UTF8
Codec ID/Info : UTF-8 Plain Text
Language : English
Default : No
Forced : No
Menu
00:00:00.000 : en:00:00:00.000
00:03:05.644 : en:00:03:05.644
00:09:58.223 : en:00:09:58.223
00:21:57.733 : en:00:21:57.733
00:33:21.124 : en:00:33:21.124
00:38:36.940 : en:00:38:36.940
00:44:35.673 : en:00:44:35.673
00:53:58.068 : en:00:53:58.068
00:57:55.180 : en:00:57:55.180
01:01:49.664 : en:01:01:49.664
01:06:38.912 : en:01:06:38.912
01:16:24.872 : en:01:16:24.872
01:20:43.130 : en:01:20:43.130
01:34:22.615 : en:01:34:22.615
01:36:32.245 : en:01:36:32.245
01:41:59.864 : en:01:41:59.864
01:49:10.043 : en:01:49:10.043
01:56:21.266 : en:01:56:21.266
Скриншоты
Скачать

Скачать торрент!

Как скачивать? · Что такое торрент? · Рейтинг и ограничения

Сайт не распространяет и не хранит электронные версии произведений, а лишь предоставляет доступ к создаваемому пользователями каталогу ссылок на торрент-файлы, которые содержат только списки хеш-сумм

[Профиль] [ЛС]
Показать сообщения:    
Ответить на тему

Текущее время: Сегодня 15:51

Часовой пояс: GMT + 4



Вы не можете начинать темы
Вы не можете отвечать на сообщения
Вы не можете редактировать свои сообщения
Вы не можете удалять свои сообщения
Вы не можете голосовать в опросах
Вы не можете прикреплять файлы к сообщениям
Вы не можете скачивать файлы