Самый лучший фильм (Кирилл Кузин) [2008, комедия, пародия, DVDRip-AVC] Sub Rus

Ответить на тему
 
Автор Сообщение

user ®

Стаж: 7 лет 7 месяцев

Сообщений: 20008

Пост Пост: #1 от 15-Фев-2015 16:24

[Цитировать]

Самый лучший фильм
Жанр: комедия, пародия
Год выпуска: 2008
Продолжительность: 01:44:35
Cубтитры: русские
Режиссёр: Кирилл Кузин
В ролях: Гарик Харламов, Михаил Галустян, Армен Джигарханян, Елена Великанова, Иосиф Буяновский, Павел Воля, Валерий Баринов, Дмитрий Нагиев, Анастасия Калманович, Павел Козмопулос...
Описание: Всего один легкомысленный поступок может привести к тому, что собственную свадьбу придется праздновать на небесах. Вадик даже не догадывался, что, желая сделать праздник веселее, он попадет в Чистилище, где предстанет перед Небесной канцелярией и будет отчитываться за всю свою короткую, но насыщенную жизнь. Как доказать богам, что ты хороший, если у них записан каждый твой шаг?
Вадик пытается вспомнить о себе хоть что-то хорошее, но память его все время подводит. На восьмилетие он умудрился напиться, в армии устроил оргию, а в 90-е стал таким конкретным бизнесменом, что теперь ему в концепцию рая вписаться абсолютно нереально. Впрочем, есть и позитивный момент: своей жизнью он насмешил Бога, значит, еще не все потеряно.
Сэмпл: http://multi-up.com/1033075
Качество видео: DVDRip-AVC [url=http://***/forum/viewtopic.php?t=1026327]Исходник[/url]
Формат видео: MKV
Видео: 720x552 (1.85:1) @ 1024x552, 25.000 fps, AVC, ~1550 Kbps, 0.156 bits/pixel
Аудио: 48.0 KHz, AC3, 6 ch, 448 Kbps

Log
avs4x264.exe: -L x264_64.exe --pass 2 --bitrate 1550 --preset medium --ref 10 --deblock -1:-1 --merange 32 --bframes 10 --direct auto --b-adapt 2 --trellis 2 --no-fast-pskip --psy-rd 1.00:0.10 --partitions all --subme 10 --me umh --rc-lookahead 50 --sar 997:701 --stats
raw [info]: 720x552p 997:701 @ 25/1 fps (cfr)
x264 [info]: using SAR=997/701
x264 [info]: using cpu capabilities: MMX2 SSE2Fast LZCNT
x264 [info]: profile High, level 3.1
x264 [info]: frame I:1267 Avg QP:16.95 size: 52380
x264 [info]: frame P:35694 Avg QP:20.29 size: 17570
x264 [info]: frame B:119917 Avg QP:23.56 size: 4352
x264 [info]: consecutive B-frames: 2.7% 4.1% 12.0% 12.5% 10.8% 54.6% 1.7% 0.4% 0.3% 0.3% 0.7%
x264 [info]: mb I I16..4: 9.5% 72.4% 18.1%
x264 [info]: mb P I16..4: 1.7% 10.9% 1.7% P16..4: 44.4% 18.7% 15.3% 0.6% 0.2% skip: 6.5%
x264 [info]: mb B I16..4: 0.1% 0.9% 0.2% B16..8: 39.4% 8.2% 1.9% direct: 4.7% skip:44.6% L0:40.3% L1:44.2% BI:15.5%
x264 [info]: 8x8 transform intra:75.6% inter:67.2%
x264 [info]: direct mvs spatial:95.5% temporal:4.5%
x264 [info]: coded y,uvDC,uvAC intra: 81.7% 75.9% 45.6% inter: 19.6% 20.6% 3.3%
x264 [info]: i16 v,h,dc,p: 39% 14% 11% 36%
x264 [info]: i8 v,h,dc,ddl,ddr,vr,hd,vl,hu: 19% 7% 7% 8% 12% 14% 10% 13% 10%
x264 [info]: i4 v,h,dc,ddl,ddr,vr,hd,vl,hu: 18% 7% 4% 8% 13% 16% 11% 12% 11%
x264 [info]: i8c dc,h,v,p: 33% 27% 24% 16%
x264 [info]: Weighted P-Frames: Y:2.1% UV:1.0%
x264 [info]: ref P L0: 46.5% 12.0% 19.6% 5.2% 5.2% 3.2% 3.3% 1.6% 1.8% 1.5% 0.3% 0.0%
x264 [info]: ref B L0: 79.1% 10.4% 4.0% 2.1% 1.5% 1.3% 1.0% 0.5% 0.2%
x264 [info]: ref B L1: 94.6% 5.4%
x264 [info]: kb/s:1549.44
x264 [total]: encoded 156878 frames, 12.69 fps, 1549.44 kb/s
MediaInfo
General
Unique ID : 182026697130600255987773867315716039903 (0x88F111112A565D6084555603C07624DF)
Complete name : C:\Самый лучший фильм.mkv
Format : Matroska
Format version : Version 4 / Version 2
File size : 1.46 GiB
Duration : 1h 44mn
Overall bit rate : 1 999 Kbps
Encoded date : UTC 2015-02-15 08:44:52
Writing application : mkvmerge v7.5.0 ('Glass Culture') 64bit built on Jan 4 2015 16:48:44
Writing library : libebml v1.3.1 + libmatroska v1.4.2
DURATION : 01:42:00.821000000
NUMBER_OF_FRAMES : 934
NUMBER_OF_BYTES : 46895
_STATISTICS_WRITING_APP : mkvmerge v7.5.0 ('Glass Culture') 64bit built on Jan 4 2015 16:48:44
_STATISTICS_WRITING_DATE_UT : 2015-02-15 08:44:52
_STATISTICS_TAGS : BPS DURATION NUMBER_OF_FRAMES NUMBER_OF_BYTES
Video
ID : 1
Format : AVC
Format/Info : Advanced Video Codec
Format profile : High@L3.1
Format settings, CABAC : Yes
Format settings, ReFrames : 10 frames
Codec ID : V_MPEG4/ISO/AVC
Duration : 1h 44mn
Bit rate : 1 550 Kbps
Width : 720 pixels
Height : 552 pixels
Display aspect ratio : 1.85:1
Frame rate mode : Constant
Frame rate : 25.000 fps
Color space : YUV
Chroma subsampling : 4:2:0
Bit depth : 8 bits
Scan type : Progressive
Bits/(Pixel*Frame) : 0.156
Stream size : 1.10 GiB (76%)
Writing library : x264 core 144 r2525 40bb568
Encoding settings : cabac=1 / ref=10 / deblock=1:-1:-1 / analyse=0x3:0x133 / me=umh / subme=10 / psy=1 / psy_rd=1.00:0.10 / mixed_ref=1 / me_range=32 / chroma_me=1 / trellis=2 / 8x8dct=1 / cqm=0 / deadzone=21,11 / fast_pskip=0 / chroma_qp_offset=-3 / threads=6 / lookahead_threads=1 / sliced_threads=0 / nr=0 / decimate=1 / interlaced=0 / bluray_compat=0 / constrained_intra=0 / bframes=10 / b_pyramid=2 / b_adapt=2 / b_bias=0 / direct=3 / weightb=1 / open_gop=0 / weightp=2 / keyint=250 / keyint_min=25 / scenecut=40 / intra_refresh=0 / rc_lookahead=50 / rc=2pass / mbtree=1 / bitrate=1550 / ratetol=1.0 / qcomp=0.60 / qpmin=0 / qpmax=69 / qpstep=4 / cplxblur=20.0 / qblur=0.5 / ip_ratio=1.40 / aq=1:1.00
Language : Russian
Default : Yes
Forced : No
Audio
ID : 2
Format : AC-3
Format/Info : Audio Coding 3
Mode extension : CM (complete main)
Format settings, Endianness : Big
Codec ID : A_AC3
Duration : 1h 44mn
Bit rate mode : Constant
Bit rate : 448 Kbps
Channel(s) : 6 channels
Channel positions : Front: L C R, Side: L R, LFE
Sampling rate : 48.0 KHz
Bit depth : 16 bits
Compression mode : Lossy
Stream size : 335 MiB (22%)
Language : Russian
Default : Yes
Forced : No
Text
ID : 3
Format : UTF-8
Codec ID : S_TEXT/UTF8
Codec ID/Info : UTF-8 Plain Text
Language : Russian
Default : No
Forced : No
Menu
00:00:00.000 : :Chapter 01
00:00:57.680 : :Chapter 02
00:10:31.200 : :Chapter 03
00:18:29.040 : :Chapter 04
00:29:39.840 : :Chapter 05
00:36:30.480 : :Chapter 06
00:45:05.200 : :Chapter 07
00:55:26.920 : :Chapter 08
01:08:54.600 : :Chapter 09
01:16:57.600 : :Chapter 10
01:22:38.960 : :Chapter 11
01:29:57.600 : :Chapter 12
01:38:33.840 : :Chapter 13
01:44:35.080 : :Chapter 14
Сравнение
[url=http://***/forum/viewtopic.php?t=1188427]http://***/forum/viewtopic.php?t=1188427[/url]


Скриншоты
Скачать

Скачать торрент!

Как скачивать? · Что такое торрент? · Рейтинг и ограничения

Сайт не распространяет и не хранит электронные версии произведений, а лишь предоставляет доступ к создаваемому пользователями каталогу ссылок на торрент-файлы, которые содержат только списки хеш-сумм

[Профиль] [ЛС]
Показать сообщения:    
Ответить на тему

Текущее время: Сегодня 02:04

Часовой пояс: GMT + 4



Вы не можете начинать темы
Вы не можете отвечать на сообщения
Вы не можете редактировать свои сообщения
Вы не можете удалять свои сообщения
Вы не можете голосовать в опросах
Вы не можете прикреплять файлы к сообщениям
Вы не можете скачивать файлы