Левиафан (Андрей Звягинцев) [2014, драма, BDRip]

Ответить на тему
 
Автор Сообщение

user ®

Стаж: 7 лет 7 месяцев

Сообщений: 20008

Пост Пост: #1 от 15-Фев-2015 02:51

[Цитировать]

--Левиафан- Жанр: драма
Год выпуска: 2014
Продолжительность: 02:21:27-Режиссёр: Андрей Звягинцев-В ролях: Алексей Серебряков, Елена Лядова, Владимир Вдовиченков, Роман Мадянов, Анна Уколова, Алексей Розин, Сергей Походаев, Платон Каменев, Сергей Бачурский, Валерий Гришко
Описание: В центре истории - живущий на севере Николай, который вместе с отцом построил дом и мастерскую. Но его нормальная жизнь рушится под влиянием судьбы.-| Сэмпл | IMDB | КиноПоиск |
-Качество видео: BDRip (источник: Blu-ray FRE / 1080p)
Формат видео: AVI
Видео: 720x304 (2.37:1), 24 fps, XviD build 65 ~1819 kbps avg, 0.35 bit/pixel
Аудио: 48 kHz, AC3 Dolby Digital, 3/2 (L,C,R,l,r) + LFE ch, ~384 kbps avg

Награды
Золотой глобус, 2015 год
Победитель (1):
Лучший фильм на иностранном языке
Каннский кинофестиваль, 2014 год
Победитель (1):
Лучший сценарий
Номинации (1):
Золотая пальмовая ветвь
Европейская киноакадемия, 2014 год
Номинации (4):
Лучший фильм
Лучшая мужская роль (Алексей Серебряков)
Лучший режиссер (Андрей Звягинцев)
Лучшая работа сценариста (Андрей Звягинцев, Олег Негин)
MediaInfo
Общее
Полное имя : F:\BD torrent\mytorrentsup\Leviafan.2014.RUS.BDRip.XviD.AC3.avi
Формат : AVI
Формат/Информация : Audio Video Interleave
Профиль формата : OpenDML
Размер файла : 2,18 Гбайт
Продолжительность : 2 ч. 21 м.
Общий поток : 2210 Кбит/сек
Название фильма : Левиафан (2014) BDRip
Программа кодирования : VirtualDubMod 1.5.10.2 (build 2540/release)
Примечание : 14.02.2015
Видео
Идентификатор : 0
Формат : MPEG-4 Visual
Профиль формата : Advanced Simple@L5
Параметр BVOP формата : 1
Параметр QPel формата : Нет
Параметр GMC формата : Без точки перехода
Параметр матрицы формата : Выборочная
Идентификатор кодека : XVID
Идентификатор кодека/Подсказка : XviD
Продолжительность : 2 ч. 21 м.
Битрейт : 1814 Кбит/сек
Ширина : 720 пикселей
Высота : 304 пикселя
Соотношение сторон : 2,35:1
Частота кадров : 24,000 кадра/сек
Цветовое пространство : YUV
Субдискретизация насыщенности : 4:2:0
Битовая глубина : 8 бит
Тип развёртки : Прогрессивная
Метод сжатия : С потерями
Бит/(Пиксели*Кадры) : 0.345
Размер потока : 1,79 Гбайт (82%)
Библиотека кодирования : XviD 65
Аудио
Идентификатор : 1
Формат : AC-3
Формат/Информация : Audio Coding 3
Расширение режима : CM (complete main)
Параметр Endianness формата : Big
Идентификатор кодека : 2000
Продолжительность : 2 ч. 21 м.
Вид битрейта : Постоянный
Битрейт : 384 Кбит/сек
Каналы : 6 каналов
Расположение каналов : Front: L C R, Side: L R, LFE
Частота : 48,0 КГц
Битовая глубина : 16 бит
Метод сжатия : С потерями
Размер потока : 389 Мбайт (17%)
Выравнивание : Разделение по промежуткам
Продолжительность промежутка : 42 мс. (1,00 видеокадр)
Время предзагрузки промежутка : 500 мс.
Скриншот c названием фильма Скриншоты
Скачать

Скачать торрент!

Как скачивать? · Что такое торрент? · Рейтинг и ограничения

Сайт не распространяет и не хранит электронные версии произведений, а лишь предоставляет доступ к создаваемому пользователями каталогу ссылок на торрент-файлы, которые содержат только списки хеш-сумм

[Профиль] [ЛС]

rrtryytyew4

Стаж: 6 лет 1 месяц

Сообщений: 31

Пост Пост: #2 от 15-Фев-2015 21:20 (спустя 18 часов)

[Цитировать]

срьезный фильм
[Профиль] [ЛС]
Показать сообщения:    
Ответить на тему

Текущее время: Сегодня 09:52

Часовой пояс: GMT + 4



Вы не можете начинать темы
Вы не можете отвечать на сообщения
Вы не можете редактировать свои сообщения
Вы не можете удалять свои сообщения
Вы не можете голосовать в опросах
Вы не можете прикреплять файлы к сообщениям
Вы не можете скачивать файлы