Пятьдесят оттенков серого / Fifty Shades of Grey (Сэм Тейлор-Джонсон / Sam Taylor-Johnson) [2015, США, Драма, мелодрама, CamRip] Dub

Ответить на тему
 
Автор Сообщение

user ®

Стаж: 7 лет 7 месяцев

Сообщений: 20008

Пост Пост: #1 от 15-Фев-2015 02:51

[Цитировать]

Пятьдесят оттенков серого / Fifty Shades of Grey- -Страна: США
Жанр: Драма, мелодрама
Год выпуска: 2015
Продолжительность: 01:57:46
Перевод: Профессиональный (дублированный)
Cубтитры: нет-Режиссер: Сэм Тейлор-Джонсон / Sam Taylor-Johnson-В ролях: Джейми Дорнан, Дакота Джонсон, Дженнифер Или, Люк Граймс, Виктор Расук, Элоиза Мамфорд, Марша Гей, Харден Рита, Ора Макс Мартини Каллум, Кит Ренни-Описание: Анастейша Стил — скромная студентка, живущая вместе с близкой подругой-сокурсницей Кейт. За неделю до выпускного в университете, Анастейша, по просьбе заболевшей Кейт заменить её, берёт интервью у молодого красавца-миллиардера Кристиана Грея. Интервью складывается не очень удачно, и Анастейша не думает, что они когда-либо встретятся вновь. Неожиданно Грей появляется в хозяйственном магазине, где девушка работает продавцом. Их знакомство продолжается, и Анастейша постепенно узнаёт о тайных сексуальных увлечениях богача…-Сэмпл: http://sendfile.su/1085489-Качество видео: CamRip
Формат видео: AVI
Видео: 720x256 (2.81:1), 29.970 fps, XviD build 50 ~1407 kbps avg, 0.25 bit/pixel
Аудио: 48 kHz, AC3 Dolby Digital, 2/0 (L,R) ch, ~256 kbps
MediaInfo
D:\Torrents\50.Ottenkov.Serogo.2015.D.CAMRip.avi
General
Complete name : D:\Torrents\50.Ottenkov.Serogo.2015.D.CAMRip.avi
Format : AVI
Format/Info : Audio Video Interleave
File size : 1.38 GiB
Duration : 1h 57mn
Overall bit rate : 1 675 Kbps
Movie name : 50.Ottenkov.Serogo.2015.D.CAMRip
Director : 3imeMachi9e&KiNOPark
Writing application : VirtualDubMod 1.5.10.3 || (build 2550/release)
Video #0
ID : 0
Format : MPEG-4 Visual
Format profile : Advanced Simple@L5
Format settings, BVOP : 3
Format settings, QPel : No
Format settings, GMC : No warppoints
Format settings, Matrix : Custom
Codec ID : XVID
Codec ID/Hint : XviD
Duration : 1h 57mn
Bit rate : 1 407 Kbps
Width : 720 pixels
Height : 256 pixels
Display aspect ratio : 2.813
Frame rate : 29.970 fps
Color space : YUV
Chroma subsampling : 4:2:0
Bit depth : 8 bits
Scan type : Progressive
Compression mode : Lossy
Bits/(Pixel*Frame) : 0.255
Stream size : 1.16 GiB (84%)
Writing library : XviD 1.2.1 (UTC 2008-12-04)
Audio #1
ID : 1
Format : AC-3
Format/Info : Audio Coding 3
Mode extension : CM (complete main)
Format settings, Endianness : Big
Codec ID : 2000
Duration : 1h 57mn
Bit rate mode : Constant
Bit rate : 256 Kbps
Channel count : 2 channels
Channel positions : Front: L R
Sampling rate : 48.0 KHz
Bit depth : 16 bits
Compression mode : Lossy
Delay relative to video : 18ms
Stream size : 216 MiB (15%)
Alignment : Split accross interleaves
Interleave, duration : 33 ms (1.00 video frame)
Interleave, preload duration : 500 ms
Скриншот с названием фильма Скриншоты
Скачать

Скачать торрент!

Как скачивать? · Что такое торрент? · Рейтинг и ограничения

Сайт не распространяет и не хранит электронные версии произведений, а лишь предоставляет доступ к создаваемому пользователями каталогу ссылок на торрент-файлы, которые содержат только списки хеш-сумм

[Профиль] [ЛС]
Показать сообщения:    
Ответить на тему

Текущее время: Сегодня 19:24

Часовой пояс: GMT + 4



Вы не можете начинать темы
Вы не можете отвечать на сообщения
Вы не можете редактировать свои сообщения
Вы не можете удалять свои сообщения
Вы не можете голосовать в опросах
Вы не можете прикреплять файлы к сообщениям
Вы не можете скачивать файлы