Потерянная вещь / Otoshimono (Ватанабе Джун / Watanabe Jun) [2007, Япония, Ужасы, DVDRip] VO + Sub Eng

Ответить на тему
 
Автор Сообщение

user ®

Стаж: 13 лет

Сообщений: 15071

Пост Пост: #1 от 14-Фев-2015 23:18

[Цитировать]

Потерянная вещь / Otoshimono
Страна: Япония
Жанр: Ужасы
Год выпуска: 2007
Продолжительность: 00:07:36
Перевод: Одноголосый закадровый sergik1 по субтитрам "Seiya & Co"
Cубтитры: английские
Режиссер: Ватанабе Джун / Watanabe Jun
В ролях: Мию Саваи, Кавабата Аки, Аои Мари
Описание: Короткометражный фильм о двух подругах. Одной из них посчастливилось стать обладательницей редких и красивых часов. Однако, ночью выяснилось, что в этих часах живет зло...
Доп. информация: Исходное видео и субтитры взять здесь [url=http://***/forum/viewtopic.php?t=3729756]http://***/forum/viewtopic.php?t=3729756[/url]
Сэмпл: http://multi-up.com/1032787
Качество видео: DVDRip
Формат видео: MKV
Видео: MPEG-4 Visual, 720x392, 29,970 кадр/сек, 772 Кбит/сек
Аудио: 48 kHz, AC3 Dolby Digital, 2/0 (L,R) ch, 192.00 kbps avg
Формат субтитров: hardsub (неотключаемые)
Доп. информация о субтитрах: Русские + английские
MediaInfo
Общее
Уникальный идентификатор: 234026110639307113678729972895762825046 (0xB00FCA17BF98AF74B8BBADEA6E133F56)
Полное имя: C:\Users\Acer\Desktop\Потерянная вещь.mkv
Формат: Matroska
Версия формата: Version 2
Размер файла: 53,5 Мбайт
Продолжительность: 7 м. 36 с.
Общий поток: 983 Кбит/сек
Дата кодирования: UTC 2015-02-13 10:02:01
Программа кодирования: mkvmerge v4.2.0 ('No Talking') сборка от Jul 28 2010 18:38:23
Библиотека кодирования: libebml v1.0.0 + libmatroska v1.0.0
Видео
Идентификатор: 1
Формат: MPEG-4 Visual
Профиль формата: Advanced Simple@L5
Параметр BVOP формата: Да
Параметр QPel формата: Нет
Параметр GMC формата: Без точки перехода
Параметр матрицы формата: Default (H.263)
Идентификатор кодека: V_MS/VFW/FOURCC / XVID
Идентификатор кодека/Подсказка: XviD
Продолжительность: 7 м. 36 с.
Битрейт: 772 Кбит/сек
Ширина: 720 пикселей
Высота: 392 пикселя
Соотношение сторон: 1,85:1
Режим частоты кадров: Постоянный
Частота кадров: 29,970 кадров/сек
Цветовое пространство: YUV
Субдискретизация насыщенности: 4:2:0
Битовая глубина: 8 бит
Тип развёртки: Прогрессивная
Метод сжатия: С потерями
Бит/(Пиксели*Кадры): 0.091
Размер потока: 42,0 Мбайт (78%)
Библиотека кодирования: XviD 1.1.2 (UTC 2006-11-01)
Default: Да
Forced: Нет
Аудио
Идентификатор: 2
Формат: AC-3
Формат/Информация: Audio Coding 3
Расширение режима: CM (complete main)
Параметр Endianness формата: Big
Режим смешивания: Header stripping
Идентификатор кодека: A_AC3
Продолжительность: 7 м. 36 с.
Вид битрейта: Постоянный
Битрейт: 192 Кбит/сек
Каналы: 2 канала
Расположение каналов: Front: L R
Частота: 48,0 КГц
Битовая глубина: 16 бит
Метод сжатия: С потерями
Размер потока: 10,5 Мбайт (20%)
Default: Да
Forced: Нет
Скриншот c названием фильма Скриншоты
Скачать

Скачать торрент! Потерянная вещь / Otoshimono (Ватанабе Джун / Watanabe Jun) [2007, Япония, Ужасы, DVDRip] VO + Sub Eng

Как скачивать? · Что такое торрент? · Рейтинг и ограничения

Сайт не распространяет и не хранит электронные версии произведений, а лишь предоставляет доступ к создаваемому пользователями каталогу ссылок на торрент-файлы, которые содержат только списки хеш-сумм

[Профиль] [ЛС]
Показать сообщения:    
Ответить на тему

Текущее время: Сегодня 21:50

Часовой пояс: GMT + 4



Вы не можете начинать темы
Вы не можете отвечать на сообщения
Вы не можете редактировать свои сообщения
Вы не можете удалять свои сообщения
Вы не можете голосовать в опросах
Вы не можете прикреплять файлы к сообщениям
Вы не можете скачивать файлы