Чикаго / Chicago (Роб Маршалл / Rob Marshall) [2002, США, мюзикл, криминал, комедия, драма, BDRip 720p] Dub + MVO + Original Eng + subs (Rus, Eng, Eng SDH)

Ответить на тему
 
Автор Сообщение

user ®

Стаж: 7 лет 7 месяцев

Сообщений: 20008

Пост Пост: #1 от 14-Фев-2015 16:03

[Цитировать]

Чикаго / Chicago- Год выпуска: 2002
Выпущено: США
Жанр: мюзикл, криминал, комедия, драма
Продолжительность: 01:53:26
Перевод: Профессиональный (полное дублирование)
+ Профессиональный (многоголосый, закадровый)
Оригинальная звуковая дорожка: English
Субтитры: Russian, English, English (SDH)-Режиссер: Роб Маршалл / Rob Marshall
В ролях: Рене Зеллвегер, Кэтрин Зета-Джонс, Ричард Гир, Тэй Диггз, Клифф Саундерс, Доминик Уэст, Джэйн Иствуд, Брюс Битон, Роман Подхора, Джон С. Рейли, Колм Фиори, Роб Смит, Шоун Вейн Дойл, Steve Behal, Robbie Rox, Chita Rivera, Квин Латифа, Сьюзэн Миснер, Денис Фэй, Дирдри Гудвин, Екатерина Челканова, Миа
О фильме: Рокси Харт мечтает о песнях и танцах и о том, как сравняться с самой Велмой Келли, примадонной водевиля. И Рокси действительно оказывается с Велмой в одном положении, когда несколько очень неправильных шагов приводят обеих на скамью подсудимых.
В угрюмых стенах тюрьмы Рокси встречает легендарного адвоката Билли Флинна, который соглашается взяться за ее дело. Карьера Рокси резко идет вверх. Но хитроумная мисс Келли приготовила всем большой сюрприз «под занавес»…-FANDANGO!
Релиз:
Формат: MKV
Видео: 1280x546 at 23.976 fps, x264@L4.1, ~11667 kbps avg
Аудио #01: Russian: 48 kHz, DTS, 3/2 (L,C,R,l,r) + LFE ch, ~768.00 kbps avg |Дубляж, Blu-ray|
Аудио #02: Russian: 48 kHz, DTS, 3/2 (L,C,R,l,r) + LFE ch, ~1509.00 kbps avg |Многоголосый закадровый|
Аудио #03: English: 48 kHz, DTS, 3/2 (L,C,R,l,r) + LFE ch, ~1509.00 kbps avg
Семпл-Source vs Encode
-
mInfo
Формат : Matroska
Версия формата : Version 4 / Version 2
Размер файла : 11,9 Гбайт
Продолжительность : 1 ч. 53 м.
Общий поток : 15,1 Мбит/сек
Название фильма : Chicago (2002) - Release for HDCLUB
Дата кодирования : UTC 2015-02-13 03:12:14
Программа кодирования : mkvmerge v6.1.0 ('Old Devil') built on Mar 2 2013 14:32:37
Библиотека кодирования : libebml v1.3.0 + libmatroska v1.4.0
Видео
Идентификатор : 1
Формат : AVC
Формат/Информация : Advanced Video Codec
Профиль формата : High@L4.1
Параметр CABAC формата : Да
Параметр ReFrames формата : 9 кадров
Идентификатор кодека : V_MPEG4/ISO/AVC
Продолжительность : 1 ч. 53 м.
Битрейт : 11,0 Мбит/сек
Ширина : 1280 пикселей
Высота : 694 пикселя
Соотношение сторон : 1,85:1
Режим частоты кадров : Постоянный
Частота кадров : 23,976 кадра/сек
Цветовое пространство : YUV
Субдискретизация насыщенности : 4:2:0
Битовая глубина : 8 бит
Тип развёртки : Прогрессивная
Бит/(Пиксели*Кадры) : 0.516
Размер потока : 8,71 Гбайт (73%)
Библиотека кодирования : x264 core 142 r2431+42 c69a006 tMod [8-bit@all X86_64]
Настройки программы : cabac=1 / ref=9 / deblock=1:-3:-3 / analyse=0x3:0x133 / me=umh / subme=9 / psy=1 / fade_compensate=0.00 / psy_rd=0.80:0.00 / mixed_ref=1 / me_range=24 / chroma_me=1 / trellis=2 / 8x8dct=1 / cqm=0 / deadzone=21,11 / fast_pskip=0 / chroma_qp_offset=-2 / threads=6 / lookahead_threads=1 / sliced_threads=0 / nr=0 / decimate=0 / interlaced=0 / bluray_compat=0 / constrained_intra=0 / fgo=0 / bframes=8 / b_pyramid=2 / b_adapt=2 / b_bias=0 / direct=3 / weightb=1 / open_gop=0 / weightp=2 / keyint=250 / keyint_min=23 / scenecut=40 / intra_refresh=0 / rc=crf / mbtree=0 / crf=18.0000 / qcomp=0.60 / qpmin=0:0:0 / qpmax=69:69:69 / qpstep=4 / ip_ratio=1.40 / pb_ratio=1.30 / aq=4:0.75 / aq-sensitivity=10.00 / aq-factor=1.00:1.00:1.00 / aq2=0 / aq3=0
Язык : English
Default : Да
Forced : Нет
Аудио #1
Идентификатор : 2
Формат : DTS
Формат/Информация : Digital Theater Systems
Режим : 16
Параметр Endianness формата : Big
Идентификатор кодека : A_DTS
Продолжительность : 1 ч. 53 м.
Вид битрейта : Постоянный
Битрейт : 755 Кбит/сек
Каналы : 6 каналов
Расположение каналов : Front: L C R, Side: L R, LFE
Частота : 48,0 КГц
Битовая глубина : 24 бит
Метод сжатия : С потерями
Размер потока : 612 Мбайт (5%)
Заголовок : |Полное дублирование, включая песни|
Язык : Russian
Default : Да
Forced : Нет
Аудио #2
Идентификатор : 3
Формат : DTS
Формат/Информация : Digital Theater Systems
Режим : 16
Параметр Endianness формата : Big
Идентификатор кодека : A_DTS
Продолжительность : 1 ч. 53 м.
Вид битрейта : Постоянный
Битрейт : 1510 Кбит/сек
Каналы : 6 каналов
Расположение каналов : Front: L C R, Side: L R, LFE
Частота : 48,0 КГц
Битовая глубина : 24 бит
Метод сжатия : С потерями
Размер потока : 1,20 Гбайт (10%)
Заголовок : |Многоголосый закадровый|
Язык : Russian
Default : Нет
Forced : Нет
Аудио #3
Идентификатор : 4
Формат : DTS
Формат/Информация : Digital Theater Systems
Режим : 16
Параметр Endianness формата : Big
Идентификатор кодека : A_DTS
Продолжительность : 1 ч. 53 м.
Вид битрейта : Постоянный
Битрейт : 1509 Кбит/сек
Каналы : 6 каналов
Расположение каналов : Front: L C R, Side: L R, LFE
Частота : 48,0 КГц
Битовая глубина : 24 бит
Метод сжатия : С потерями
Размер потока : 1,20 Гбайт (10%)
Язык : English
Default : Нет
Forced : Нет
Текст #1
Идентификатор : 5
Формат : UTF-8
Идентификатор кодека : S_TEXT/UTF8
Идентификатор кодека/Информация : UTF-8 Plain Text
Язык : Russian
Default : Нет
Forced : Нет
Текст #2
Идентификатор : 6
Формат : UTF-8
Идентификатор кодека : S_TEXT/UTF8
Идентификатор кодека/Информация : UTF-8 Plain Text
Язык : English
Default : Нет
Forced : Нет
Текст #3
Идентификатор : 7
Формат : UTF-8
Идентификатор кодека : S_TEXT/UTF8
Идентификатор кодека/Информация : UTF-8 Plain Text
Заголовок : SDH
Язык : English
Default : Нет
Forced : Нет
Меню
00:00:00.000 : en:And All That Jazz
00:07:07.427 : en:Killing Fred Casely
00:11:01.744 : en:Funny Honey
00:16:53.345 : en:When You're Good to Mama
00:23:00.295 : en:Cell Block Tango
00:30:41.422 : en:All I Care About
00:39:18.230 : en:Sweetest Little Jazz Killer
00:45:08.247 : en:We Both Reached for the Gun
00:50:55.886 : en:Roxie
00:57:39.372 : en:I Can't Do It Alone
01:03:51.619 : en:Go to Hell Kitty
01:09:30.583 : en:Mister Cellophane
01:14:18.954 : en:Flash in the Pan
01:18:06.848 : en:Razzle Dazzle
01:24:37.363 : en:Velma Takes the Stand
01:30:30.049 : en:A Tap Dance
01:33:36.068 : en:The Verdict
01:37:19.750 : en:Nowadays
01:41:31.794 : en:Hot Honey Rag
01:45:35.078 : en:End Credits
-
Скачать

Скачать торрент!

Как скачивать? · Что такое торрент? · Рейтинг и ограничения

Сайт не распространяет и не хранит электронные версии произведений, а лишь предоставляет доступ к создаваемому пользователями каталогу ссылок на торрент-файлы, которые содержат только списки хеш-сумм

[Профиль] [ЛС]
Показать сообщения:    
Ответить на тему

Текущее время: Сегодня 09:46

Часовой пояс: GMT + 4



Вы не можете начинать темы
Вы не можете отвечать на сообщения
Вы не можете редактировать свои сообщения
Вы не можете удалять свои сообщения
Вы не можете голосовать в опросах
Вы не можете прикреплять файлы к сообщениям
Вы не можете скачивать файлы