Настя (Георгий Данелия) [1993, мелодрама, комедия, DVDRip-AVC]

Ответить на тему
 
Автор Сообщение

user ®

Стаж: 7 лет 7 месяцев

Сообщений: 20008

Пост Пост: #1 от 14-Фев-2015 16:03

[Цитировать]

Настя
Жанр: мелодрама, комедия
Год выпуска: 1993
Продолжительность: 01:24:06
Режиссёр: Георгий Данелия
В ролях: Полина Кутепова, Ирина Маркова, Валерий Николаев, Евгений Леонов, Александр Абдулов, Галина Петрова, Нина Тер-Осипян, Наталья Щукина, Ольга Недоводина, Александр Потапов...
Описание: Скромная продавщица из магазина канцелярских принадлежностей мечтает о счастье. Мечта — это единственная возможность для девушки быть счастливой, ибо она не красавица и осознает это. Однако происходит чудо: по воле доброй волшебницы ничем внешне не примечательная девушка превращается в красавицу. Но оказывается, что внутренняя красота важнее…
Сэмпл: http://multi-up.com/1032877
Качество видео: DVDRip-AVC [url=http://***/forum/viewtopic.php?t=185745]Исходник[/url]
Формат видео: MKV
Видео: 716x574 (4:3) @ 764x574, 25.000 fps, AVC, ~2020 Kbps, 0.197 bits/pixel
Аудио: 48.0 KHz, AC3, 6 ch, 448 Kbps

MediaInfo
General
Unique ID : 203889425410856586355145349928100467255 (0x9963ACCB1D1532898C3F627A327A9237)
Complete name : C:\Настя.mkv
Format : Matroska
Format version : Version 4 / Version 2
File size : 1.45 GiB
Duration : 1h 24mn
Overall bit rate : 2 470 Kbps
Encoded date : UTC 2015-02-14 08:43:11
Writing application : mkvmerge v7.5.0 ('Glass Culture') 64bit built on Jan 4 2015 16:48:44
Writing library : libebml v1.3.1 + libmatroska v1.4.2
DURATION : 01:24:05.952000000
NUMBER_OF_FRAMES : 157686
NUMBER_OF_BYTES : 282573312
_STATISTICS_WRITING_APP : mkvmerge v7.5.0 ('Glass Culture') 64bit built on Jan 4 2015 16:48:44
_STATISTICS_WRITING_DATE_UT : 2015-02-14 08:43:11
_STATISTICS_TAGS : BPS DURATION NUMBER_OF_FRAMES NUMBER_OF_BYTES
Video
ID : 1
Format : AVC
Format/Info : Advanced Video Codec
Format profile : High@L3.1
Format settings, CABAC : Yes
Format settings, ReFrames : 10 frames
Codec ID : V_MPEG4/ISO/AVC
Duration : 1h 24mn
Bit rate : 2 020 Kbps
Width : 716 pixels
Height : 574 pixels
Display aspect ratio : 4:3
Frame rate mode : Constant
Frame rate : 25.000 fps
Color space : YUV
Chroma subsampling : 4:2:0
Bit depth : 8 bits
Scan type : Progressive
Bits/(Pixel*Frame) : 0.197
Stream size : 1.16 GiB (80%)
Writing library : x264 core 144 r2525 40bb568
Encoding settings : cabac=1 / ref=10 / deblock=1:-1:-1 / analyse=0x3:0x133 / me=umh / subme=10 / psy=1 / psy_rd=1.00:0.10 / mixed_ref=1 / me_range=32 / chroma_me=1 / trellis=2 / 8x8dct=1 / cqm=0 / deadzone=21,11 / fast_pskip=0 / chroma_qp_offset=-3 / threads=6 / lookahead_threads=1 / sliced_threads=0 / nr=0 / decimate=1 / interlaced=0 / bluray_compat=0 / constrained_intra=0 / bframes=10 / b_pyramid=2 / b_adapt=2 / b_bias=0 / direct=3 / weightb=1 / open_gop=0 / weightp=2 / keyint=250 / keyint_min=25 / scenecut=40 / intra_refresh=0 / rc_lookahead=50 / rc=2pass / mbtree=1 / bitrate=2020 / ratetol=1.0 / qcomp=0.60 / qpmin=0 / qpmax=69 / qpstep=4 / cplxblur=20.0 / qblur=0.5 / ip_ratio=1.40 / aq=1:1.00
Language : Russian
Default : Yes
Forced : No
Audio
ID : 2
Format : AC-3
Format/Info : Audio Coding 3
Mode extension : CM (complete main)
Format settings, Endianness : Big
Codec ID : A_AC3
Duration : 1h 24mn
Bit rate mode : Constant
Bit rate : 448 Kbps
Channel(s) : 6 channels
Channel positions : Front: L C R, Side: L R, LFE
Sampling rate : 48.0 KHz
Bit depth : 16 bits
Compression mode : Lossy
Stream size : 269 MiB (18%)
Language : Russian
Default : Yes
Forced : No
Menu
00:00:00.000 : :Chapter 01
00:04:44.200 : :Chapter 02
00:11:28.320 : :Chapter 03
00:21:00.280 : :Chapter 04
00:30:57.280 : :Chapter 05
00:38:49.560 : :Chapter 06
00:47:54.480 : :Chapter 07
00:54:00.080 : :Chapter 08
01:06:26.440 : :Chapter 09
01:15:55.920 : :Chapter 10
Сравнение
[url=http://***/forum/viewtopic.php?t=210032]http://***/forum/viewtopic.php?t=210032[/url]
DVDRip | DVDRip-AVC


Скриншоты
Скачать

Скачать торрент!

Как скачивать? · Что такое торрент? · Рейтинг и ограничения

Сайт не распространяет и не хранит электронные версии произведений, а лишь предоставляет доступ к создаваемому пользователями каталогу ссылок на торрент-файлы, которые содержат только списки хеш-сумм

[Профиль] [ЛС]
Показать сообщения:    
Ответить на тему

Текущее время: Сегодня 04:21

Часовой пояс: GMT + 4



Вы не можете начинать темы
Вы не можете отвечать на сообщения
Вы не можете редактировать свои сообщения
Вы не можете удалять свои сообщения
Вы не можете голосовать в опросах
Вы не можете прикреплять файлы к сообщениям
Вы не можете скачивать файлы