Ханзо-Клинок: Меч правосудия / Hanzo the Razor: Sword of Justice / Goyokiba (Кэндзи Мисуми / Kenji Misumi) [1972, Япония, Боевик, исторический, криминал, DVDRip] AVO (С. Кузнецов) + AVO (А. Кашкин)

Ответить на тему
 
Автор Сообщение

user ®

Стаж: 13 лет

Сообщений: 15071

Пост Пост: #1 от 14-Фев-2015 12:21

[Цитировать]

Ханзо-Клинок: Меч правосудия / Hanzo the Razor: Sword of Justice / Goyokiba- -Страна: Япония
Жанр: Боевик, исторический, криминал
Год выпуска: 1972
Продолжительность: 01:29:31-Перевод: Авторский (одноголосый закадровый) (С. Кузнецов)
Перевод: Авторский (одноголосый закадровый) (А. Кашкин)-Cубтитры: нет
Оригинальная аудиодорожка: нет
Режиссер: Кэндзи Мисуми / Kenji Misumi
В ролях: Синтаро Кацу, Юкиджи Асаока, Мари Ацуми, Ко Нишимура, Каматари Фудживара, Акира Ямаучи, Коджи Кобаяши, Зенпеи Сага...
Описание: Ханзо Итами — неподкупный полицейский, стоящий на страже закона и простых людей. Чтобы понять преступников, он готов истязать свое тело. У него необычные методы расследования. Для подозреваемых женщин всегда найдется весомый аргумент, в виде огромного натренированного мужского достоинства. В первом фильме Ханзо расследует дело о таинственном убийце Канбеи, который сбежал из тюрьмы. Нити заговора тянутся во «внутренний замок»…
Релиз от -
Сэмпл: http://multi-up.com/1032679
Качество видео: DVDRip
Формат видео: AVI
Видео: MPEG-4 Visual at 1952 Кбит/сек; 720 x 304 (2.368) at 25.000 fps
Аудио: AC-3 at 192 Кбит/сек; 2 канала, 48,0 КГц [AVO]
Аудио: AC-3 at 192 Кбит/сек; 2 канала, 48,0 КГц [AVO]
Автор -
MediaInfo
Общее
Полное имя : D:\Фильмы\Азиатские\Меч правосудия\Sword of Justice.1972.DVDRip.XviD.1400MB. rip by [Assassin's Creed].avi
Формат : AVI
Формат/Информация : Audio Video Interleave
Размер файла : 1,47 Гбайт
Продолжительность : 1 ч. 29 м.
Общий поток : 2350 Кбит/сек
Программа кодирования : VirtualDubMod 1.5.10.3 | www.virtualdub-fr.org || (build 2550/release)
Библиотека кодирования : VirtualDubMod build 2550/release
Видео
Идентификатор : 0
Формат : MPEG-4 Visual
Профиль формата : Advanced Simple@L5
Параметр BVOP формата : 1
Параметр QPel формата : Нет
Параметр GMC формата : Без точки перехода
Параметр матрицы формата : Default (MPEG)
Идентификатор кодека : XVID
Идентификатор кодека/Подсказка : XviD
Продолжительность : 1 ч. 29 м.
Битрейт : 1952 Кбит/сек
Ширина : 720 пикселей
Высота : 304 пикселя
Соотношение сторон : 2,35:1
Частота кадров : 25,000 кадров/сек
Цветовое пространство : YUV
Субдискретизация насыщенности : 4:2:0
Битовая глубина : 8 бит
Тип развёртки : Прогрессивная
Метод сжатия : С потерями
Бит/(Пиксели*Кадры) : 0.357
Размер потока : 1,22 Гбайт (83%)
Библиотека кодирования : XviD 1.2.1 (UTC 2008-12-04)
Аудио #1
Идентификатор : 1
Формат : AC-3
Формат/Информация : Audio Coding 3
Расширение режима : CM (complete main)
Параметр Endianness формата : Big
Идентификатор кодека : 2000
Продолжительность : 1 ч. 29 м.
Вид битрейта : Постоянный
Битрейт : 192 Кбит/сек
Каналы : 2 канала
Расположение каналов : Front: L R
Частота : 48,0 КГц
Битовая глубина : 16 бит
Метод сжатия : С потерями
Размер потока : 123 Мбайт (8%)
Выравнивание : Разделение по промежуткам
Продолжительность промежутка : 40 мс. (1,00 видеокадр)
Время предзагрузки промежутка : 500 мс.
Аудио #2
Идентификатор : 2
Формат : AC-3
Формат/Информация : Audio Coding 3
Расширение режима : CM (complete main)
Параметр Endianness формата : Big
Идентификатор кодека : 2000
Продолжительность : 1 ч. 29 м.
Вид битрейта : Постоянный
Битрейт : 192 Кбит/сек
Каналы : 2 канала
Расположение каналов : Front: L R
Частота : 48,0 КГц
Битовая глубина : 16 бит
Метод сжатия : С потерями
Задержка видео : 25 мс.
Размер потока : 123 Мбайт (8%)
Выравнивание : Разделение по промежуткам
Продолжительность промежутка : 40 мс. (1,00 видеокадр)
Время предзагрузки промежутка : 500 мс.
Скриншот c названием фильма Скриншоты
Скачать

Скачать торрент! Ханзо-Клинок: Меч правосудия / Hanzo the Razor: Sword of Justice / Goyokiba (Кэндзи Мисуми / Kenji Misumi) [1972, Япония, Боевик, исторический, криминал, DVDRip] AVO (С. Кузнецов) + AVO (А. Кашкин)

Как скачивать? · Что такое торрент? · Рейтинг и ограничения

Сайт не распространяет и не хранит электронные версии произведений, а лишь предоставляет доступ к создаваемому пользователями каталогу ссылок на торрент-файлы, которые содержат только списки хеш-сумм

[Профиль] [ЛС]
Показать сообщения:    
Ответить на тему

Текущее время: Сегодня 17:22

Часовой пояс: GMT + 4



Вы не можете начинать темы
Вы не можете отвечать на сообщения
Вы не можете редактировать свои сообщения
Вы не можете удалять свои сообщения
Вы не можете голосовать в опросах
Вы не можете прикреплять файлы к сообщениям
Вы не можете скачивать файлы