Осенняя казнь / Execution in Autumn / Qiu Jue (Ли Син / Hsing Lee) [1972, Тайвань, драма, DVDRip] VO (Кипарис) + Original Chi

Ответить на тему
 
Автор Сообщение

user ®

Стаж: 13 лет

Сообщений: 15071

Пост Пост: #1 от 14-Фев-2015 12:21

[Цитировать]

Осенняя казнь / Execution in Autumn / Qiu Jue
Страна: Тайвань
Жанр: драма
Год выпуска: 1972
Продолжительность: 01:39:32
Перевод: Студийный (одноголосый закадровый) Кипарис
Cубтитры: нет
Оригинальная аудиодорожка: китайский
Режиссер: Ли Син / Hsing Lee
В ролях: Тан Баоюнь, Оу Вэй, Гэ Сянтин, Фу Бихуэй, Юи Лу Чен, Шэо Чинг Чоу, Фэй Ванг, Сиу Хин Чоу, Би Хуи Фу, Су Ханг, Сян Тин Ко, Хсианг Ли, Вэй Ау, Фу Шенг Цуй
Описание: Порядок вещей в Природе гармоничен. Если Весна несет в себе символизм цветения, начала жизни, то Осень - пора сбора урожая, подведения итогов. В средневековом Китае преступников, приговоренных к смертной казни, держали в тюрьме до осени, чтобы исполнение приговора совпало с порой, когда смерть будет гармонична состоянию природы. Так сводятся к минимуму последствия, как от совершенного ими, так и от самой казни.
В фильме показана история молодого человека из состоятельной семьи, который приговорен к смерти за убийство. Содеянное им явилось прямым результатом его образа жизни (Лето) и воспитания (Весна). Последний год, проведенный им в тюрьме в ожидании Осени, позволяет ему полностью измениться и всего за несколько дней перед Смертью стать Человеком, достойным Жить.
II Сэмпл II IMDB II
Релиз группа:

Доп. информация:
За исходник Execution in Autumn (1972) NTSC DVD5 спасибо Crimson Andrew
За русскую дорогу спасибо Ne0
Качество видео: DVDRip
Формат видео: AVI
Видео: Xvid 608x272 (2.25:1) 23.976fps Bit rate 1632Kbps b/p 0.412
Аудио 1: AC3 48.0 KHz 2ch. 192kbps rus vo Студия Кипарис
Аудио 2: AC3 48.0 KHz 2ch. 192kbps chi
MediaInfo
Общее
Полное имя : E:\torrent\Execution.in.Autumn.1972.DVDRip.avi
Формат : AVI
Формат/Информация : Audio Video Interleave
Размер файла : 1,41 Гбайт
Продолжительность : 1 ч. 39 м.
Общий поток : 2030 Кбит/сек
Программа кодирования : VirtualDubMod 1.5.10.3 (build 2550/release)
Библиотека кодирования : VirtualDubMod build 2550/release
Видео
Идентификатор : 0
Формат : MPEG-4 Visual
Профиль формата : Advanced Simple@L5
Параметр BVOP формата : 2
Параметр QPel формата : Нет
Параметр GMC формата : Без точки перехода
Параметр матрицы формата : Default (MPEG)
Идентификатор кодека : XVID
Идентификатор кодека/Подсказка : XviD
Продолжительность : 1 ч. 39 м.
Битрейт : 1632 Кбит/сек
Ширина : 608 пикселей
Высота : 272 пикселя
Соотношение сторон : 2,25:1
Частота кадров : 23,976 кадра/сек
Цветовое пространство : YUV
Субдискретизация насыщенности : 4:2:0
Битовая глубина : 8 бит
Тип развёртки : Прогрессивная
Метод сжатия : С потерями
Бит/(Пиксели*Кадры) : 0.412
Размер потока : 1,13 Гбайт (80%)
Библиотека кодирования : XviD 1.2.1 (UTC 2008-12-04)
Аудио #1
Идентификатор : 1
Формат : AC-3
Формат/Информация : Audio Coding 3
Расширение режима : CM (complete main)
Параметр Endianness формата : Big
Идентификатор кодека : 2000
Продолжительность : 1 ч. 39 м.
Вид битрейта : Постоянный
Битрейт : 192 Кбит/сек
Каналы : 2 канала
Расположение каналов : Front: L R
Частота : 48,0 КГц
Битовая глубина : 16 бит
Метод сжатия : С потерями
Размер потока : 137 Мбайт (9%)
Выравнивание : Разделение по промежуткам
Продолжительность промежутка : 42 мс. (1,00 видеокадр)
Время предзагрузки промежутка : 500 мс.
Аудио #2
Идентификатор : 2
Формат : AC-3
Формат/Информация : Audio Coding 3
Расширение режима : CM (complete main)
Параметр Endianness формата : Big
Идентификатор кодека : 2000
Продолжительность : 1 ч. 39 м.
Вид битрейта : Постоянный
Битрейт : 192 Кбит/сек
Каналы : 2 канала
Расположение каналов : Front: L R
Частота : 48,0 КГц
Битовая глубина : 16 бит
Метод сжатия : С потерями
Размер потока : 137 Мбайт (9%)
Выравнивание : Разделение по промежуткам
Продолжительность промежутка : 42 мс. (1,00 видеокадр)
Время предзагрузки промежутка : 500 мс.
Скриншот c названием фильма Скриншоты Сравнение с tvrip
Скачать

Скачать торрент! Осенняя казнь / Execution in Autumn / Qiu Jue (Ли Син / Hsing Lee) [1972, Тайвань, драма, DVDRip] VO (Кипарис) + Original Chi

Как скачивать? · Что такое торрент? · Рейтинг и ограничения

Сайт не распространяет и не хранит электронные версии произведений, а лишь предоставляет доступ к создаваемому пользователями каталогу ссылок на торрент-файлы, которые содержат только списки хеш-сумм

[Профиль] [ЛС]
Показать сообщения:    
Ответить на тему

Текущее время: Сегодня 17:10

Часовой пояс: GMT + 4



Вы не можете начинать темы
Вы не можете отвечать на сообщения
Вы не можете редактировать свои сообщения
Вы не можете удалять свои сообщения
Вы не можете голосовать в опросах
Вы не можете прикреплять файлы к сообщениям
Вы не можете скачивать файлы