Испытание (Александр Котт) [2014, Драма, WEB-DLRip]

Ответить на тему
 
Автор Сообщение

user ®

Стаж: 7 лет 7 месяцев

Сообщений: 20008

Пост Пост: #1 от 14-Фев-2015 12:21

[Цитировать]

Испытание
Жанр: Драма
Год выпуска: 2014
Продолжительность: 01:32:03
Режиссёр: Александр Котт
В ролях: Елена Ан, Данила Рассомахин, Карим Пакачаков, Нариман Бекбулатов-Арешев, Эдуард Галкин, Дмитрий Семенов, Юрий Пимкин, Игорь Ливенцов, Мирослав Тузин, Рустем Османов, Расим Мамутов, Александр Ким, Асия Ким, Виктор Ким, Саиде Кенжалиева, Зоре Бекирова, Андрей Захаров, Евгений Пухкий, Игорь Салимонов, Ринат Бекташев, Денис Сираев, Андрей Корниенко, Андрей Селезнев, Сергей Халиченко, Энвер Белялов, Павел Рассомахин
Описание: Они живут в степи. Отец и дочь. Ничто не может нарушить вечный порядок. Завтра наступает всегда. И каждое утро отец уезжает работать. И она остается одна. Ждать отца. И чувствовать. Двое любят ее. Она любит каждого. Любовь нельзя поделить. Однажды решение приходит само. Оттуда, где солнце.
Доп. информация: фильм не содержит диалогов
Сэмпл: http://multi-up.com/1032869
Качество видео: WEB-DLRip
Формат видео: AVI
Видео: 672x288 (2.33:1), 25 fps, XviD build 73 ~998 kbps avg, 0.21 bit/pixel
Аудио: 48 kHz, MPEG Layer 3, 2 ch, ~128.00 kbps avg
MediaInfo
Формат : AVI
Формат/Информация : Audio Video Interleave
Размер файла : 748 Мбайт
Продолжительность : 1 ч. 32 м.
Общий поток : 1136 Кбит/сек
Программа кодирования : VirtualDubMod 1.5.10.3 | www.virtualdub-fr.org || (build 2550/release)
Библиотека кодирования : VirtualDubMod build 2550/release
Видео
Идентификатор : 0
Формат : MPEG-4 Visual
Профиль формата : Advanced Simple@L5
Параметр BVOP формата : 1
Параметр QPel формата : Нет
Параметр GMC формата : Без точки перехода
Параметр матрицы формата : Выборочная
Идентификатор кодека : XVID
Идентификатор кодека/Подсказка : XviD
Продолжительность : 1 ч. 32 м.
Битрейт : 999 Кбит/сек
Ширина : 672 пикселя
Высота : 288 пикселей
Соотношение сторон : 2,35:1
Частота кадров : 25,000 кадров/сек
Цветовое пространство : YUV
Субдискретизация насыщенности : 4:2:0
Битовая глубина : 8 бит
Тип развёртки : Прогрессивная
Метод сжатия : С потерями
Бит/(Пиксели*Кадры) : 0.206
Размер потока : 658 Мбайт (88%)
Библиотека кодирования : XviD 73
Аудио
Идентификатор : 1
Формат : MPEG Audio
Версия формата : Version 1
Профиль формата : Layer 3
Идентификатор кодека : 55
Идентификатор кодека/Подсказка : MP3
Продолжительность : 1 ч. 32 м.
Вид битрейта : Постоянный
Битрейт : 128 Кбит/сек
Каналы : 2 канала
Частота : 48,0 КГц
Метод сжатия : С потерями
Размер потока : 84,3 Мбайт (11%)
Выравнивание : Соединение по промежуткам
Продолжительность промежутка : 40 мс. (1,00 видеокадр)
Время предзагрузки промежутка : 504 мс.
Библиотека кодирования : LAME3.99r
Настройки программы : -m s -V 4 -q 2 -lowpass 17 -b 128
Скриншоты
Скачать

Скачать торрент!

Как скачивать? · Что такое торрент? · Рейтинг и ограничения

Сайт не распространяет и не хранит электронные версии произведений, а лишь предоставляет доступ к создаваемому пользователями каталогу ссылок на торрент-файлы, которые содержат только списки хеш-сумм

[Профиль] [ЛС]
Показать сообщения:    
Ответить на тему

Текущее время: Сегодня 01:52

Часовой пояс: GMT + 4



Вы не можете начинать темы
Вы не можете отвечать на сообщения
Вы не можете редактировать свои сообщения
Вы не можете удалять свои сообщения
Вы не можете голосовать в опросах
Вы не можете прикреплять файлы к сообщениям
Вы не можете скачивать файлы