Я - мститель / Naan Sigappu Manithan (Тиру / Thiru) [2014, Индия, Драма, BDRip] Sub Rus

Ответить на тему
 
Автор Сообщение

user ®

Стаж: 12 лет

Сообщений: 15092

Пост Пост: #1 от 14-Фев-2015 01:42

[Цитировать]

Я - мститель / Naan Sigappu Manithan
Страна: Индия
Оригинальная аудиодорожка: Тамильская
Жанр: Драма
Год выпуска: 2014
Продолжительность: 02:27:25
Перевод: Субтитры
Cубтитры: русские
Перевод, редакция, тайминг субтитров: Net
Риппер: Randy23(Спасибо!)
Релиз группы BwTorrents
Особая благодарность Lauri, за предоставленные субтитры
Режиссер: Тиру / Thiru
В ролях: Вишал, Лакшми Менон, Джаяпракаш, Иния, Саранья Понваннан, Сундер Раму, Джаган и др.
Описание: "Люди хранят свои желания в сердце, а я их записал: заработать денег, дать отдых маме, перейти одному дорогу... Всего 10 подобных желаний. Почему я их записал? Меня зовут Индран."
Почему он постоянно падает в обморок? Нет, он просто засыпает. От внезапного шума или сильных эмоций, на медицинском языке именуемое нарколепсией. Но у Индрана необычное заболевание, он всё слышит, даже когда спит. У него прекрасное образование, но кому оно нужно, если работник постоянно грохается на пол и засыпает. У него есть верные друзья, любящая мама. Одно из его желаний - увидеть ангела и влюбиться. Мира... Тот самый ангел.... Жизнь налаживается, болезнь уже не кажется чем-то пугающим. Но одна дождливая ночь навсегда изменила жизнь Индрана...
Сэмпл: http://multi-up.com/1032735
Качество видео: BDRip
Исходник: AP- Untouched - DVD9 - DD & DTS, релиз - Team TMR
Формат видео: AVI
Видео: XviD, 720x304, 23,976 fps, 2316 kbps
Аудио: AC3, 48 kHz, 6 channel, 448 kbps
Формат субтитров: hardsub (неотключаемые)
MediaInfo
Format : AVI
Format/Info : Audio Video Interleave
Format profile : OpenDML
File size : 2.86 GiB
Duration : 2h 27mn
Overall bit rate : 2 774 Kbps
Writing application : VirtualDubMod 1.5.10.2 (build 2542/release)
Writing library : VirtualDubMod build 2542/release
Video #0
ID : 0
Format : MPEG-4 Visual
Format profile : Advanced Simple@L5
Format settings, BVOP : 2
Format settings, QPel : No
Format settings, GMC : No warppoints
Format settings, Matrix : Default (H.263)
Muxing mode : Packed bitstream
Codec ID : XVID
Codec ID/Hint : XviD
Duration : 2h 27mn
Bit rate : 2 316 Kbps
Width : 720 pixels
Height : 304 pixels
Display aspect ratio : 2.35:1
Frame rate : 23.976 fps
Color space : YUV
Chroma subsampling : 4:2:0
Bit depth : 8 bits
Scan type : Progressive
Compression mode : Lossy
Bits/(Pixel*Frame) : 0.441
Stream size : 2.38 GiB (83%)
Writing library : XviD 63
Audio #1
ID : 1
Format : AC-3
Format/Info : Audio Coding 3
Mode extension : CM (complete main)
Codec ID : 2000
Duration : 2h 27mn
Bit rate mode : Constant
Bit rate : 448 Kbps
Channel(s) : 6 channels
Channel positions : Front: L C R, Side: L R, LFE
Sampling rate : 48.0 KHz
Bit depth : 16 bits
Compression mode : Lossy
Stream size : 472 MiB (16%)
Alignment : Split accross interleaves
Interleave, duration : 42 ms (1.00 video frame)
Interleave, preload duration : 500 ms
Скриншот c названием фильма Скриншоты
Скачать

Скачать торрент! Я - мститель / Naan Sigappu Manithan (Тиру / Thiru) [2014, Индия, Драма, BDRip] Sub Rus

Как скачивать? · Что такое торрент? · Рейтинг и ограничения

Сайт не распространяет и не хранит электронные версии произведений, а лишь предоставляет доступ к создаваемому пользователями каталогу ссылок на торрент-файлы, которые содержат только списки хеш-сумм

[Профиль] [ЛС]
Показать сообщения:    
Ответить на тему

Текущее время: Сегодня 17:53

Часовой пояс: GMT + 4



Вы не можете начинать темы
Вы не можете отвечать на сообщения
Вы не можете редактировать свои сообщения
Вы не можете удалять свои сообщения
Вы не можете голосовать в опросах
Вы не можете прикреплять файлы к сообщениям
Вы не можете скачивать файлы