Джон Уик / John Wick (Чад Стахелски / Chad Stahelski, Дэвид Лейтч / David Leitch) [2014 г., США, Канада, Китай, боевик, триллер, BDRip 720p] Dub + 2x VO (Матвеев, Есарев) + Original Eng + Sub (Rus, Ukr, Eng)

Ответить на тему
 
Автор Сообщение

user ®

Стаж: 7 лет 7 месяцев

Сообщений: 20008

Пост Пост: #1 от 13-Фев-2015 21:51

[Цитировать]

-Джон Уик / John Wick«Его лучше не трогать» Страна: США, Канада, Китай
Студия: 87Eleven, Company Films, DefyNite Films, Huayi Brothers Media, MJW Films, Rocket Science VFX, Thunder Road, Unbelievable Entertainment
Жанр: Боевик, триллер
Год выпуска: 2014
Продолжительность: 01:41:10-Перевод 1: Профессиональный (полное дублирование)
Перевод 2: Одноголосый (закадровый), А. Матвеев
Перевод 3: Одноголосый (закадровый), Д. Есарев
Оригинальная аудиодорожка: английская
Cубтитры: русские, украинские, английские
Режиссер: Чад Стахелски / Chad Stahelski, Дэвид Лейтч / David Leitch
В ролях: Киану Ривз, Микаэл Нюквист, Элфи Оуэн-Аллен, Уиллем Дефо, Дин Уинтерс, Эдрианн Палики, Джон Легуизамо, Иэн МакШейн, Дэниэл Бернхард, Бриджет Мойнэхэн
Описание: Джон Уик на первый взгляд самый обычный среднестатистический американец, который ведет спокойную мирную жизнь. Однако мало кто знает, что в свое время он был наемным убийцей, причем одним из лучших профессионалов в своем деле.
После того, как преступник угоняет его любимый «Мустанг», 1969 года выпуска, при этом убив его собаку Дейзи, которая была единственным напоминанием об умершей супруге, Джон вынужден вернуться к своему прошлому. Теперь Уик начинает охоту на человека, который имел неосторожность перейти ему дорогу, и он готов на все, чтобы отомстить ему…-
Сэмпл: скачать-Автор рипа: Elheym
Качество: BDRip 720p (источник: / Blu-ray Disc [JOHN_WICK_NOR_BLUEBIRD] / 1080p)
Контейнер: MKV
Видео: 1280x534 (2.40:1), 23.976 fps, MPEG-4 AVC, ~6700 kbps avg, 0.409 bit/pixel
Аудио #1: Русский: DTS, 5.1, 48 kHz, ~1509 Кбит/с | Профессиональный (полное дублирование) |
Аудио #2: Русский: DTS, 5.1, 48 kHz, ~1509 Кбит/с | Одноголосый (закадровый), Матвеев |
Аудио #3: Русский: AC3, 5.1, 48 kHz, ~640 Кбит/с | Одноголосый (закадровый), Есарев |
Аудио #4: Английский: DTS, 5.1, 48 kHz, ~1509 Кбит/с | Оригинал |
Субтитры: Русские (полные х2**), Украинские (полные), Английские (полные х2, полные SDH, полные SDH цветные)
Главы: Присутствуют, сохранены оригинальные
MediaInfo
Уникальный идентификатор : 188224284029313887160385677409605818433 (0x8D9AADB157D2ECDEA87CFA3DA1529841)
Полное имя : John.Wick.2014.720p.BluRay.3xRus.Eng.mkv
Формат : Matroska
Версия формата : Version 2
Размер файла : 8,39 Гбайт
Продолжительность : 1 ч. 41 м.
Общий поток : 11,9 Мбит/сек
Дата кодирования : UTC 2015-02-12 17:13:36
Программа кодирования : mkvmerge v5.2.0 ('I can't explain') built on Dec 18 2011 18:12:03
Библиотека кодирования : libebml v1.2.3 + libmatroska v1.3.0
Видео
Идентификатор : 1
Формат : AVC
Формат/Информация : Advanced Video Codec
Профиль формата : High@L4.1
Параметр CABAC формата : Да
Параметр ReFrames формата : 8 кадров
Идентификатор кодека : V_MPEG4/ISO/AVC
Продолжительность : 1 ч. 41 м.
Битрейт : 6700 Кбит/сек
Ширина : 1280 пикселей
Высота : 534 пикселя
Соотношение сторон : 2,40:1
Режим частоты кадров : Постоянный
Частота кадров : 23,976 кадра/сек
Цветовое пространство : YUV
Субдискретизация насыщенности : 4:2:0
Битовая глубина : 8 бит
Тип развёртки : Прогрессивная
Бит/(Пиксели*Кадры) : 0.409
Размер потока : 4,57 Гбайт (54%)
Заголовок : Джон Уик / John Wick [NOR] (2014) BDRip 720p by Elheym
Библиотека кодирования : x264 core 144 r2525kMod 40bb568
Настройки программы : cabac=1 / ref=9 / deblock=1:-3:-2 / analyse=0x3:0x113 / me=umh / subme=11 / psy=1 / fade_compensate=0.00 / psy_rd=0.95:0.05 / mixed_ref=1 / me_range=32 / chroma_me=1 / trellis=2 / 8x8dct=1 / cqm=0 / deadzone=21,11 / fast_pskip=1 / chroma_qp_offset=-5 / threads=6 / lookahead_threads=1 / sliced_threads=0 / nr=0 / decimate=1 / interlaced=0 / bluray_compat=0 / constrained_intra=0 / fgo=0 / bframes=12 / b_pyramid=1 / b_adapt=2 / b_bias=0 / direct=3 / weightb=1 / open_gop=0 / weightp=2 / keyint=230 / keyint_min=23 / scenecut=40 / intra_refresh=0 / rc_lookahead=40 / rc=2pass / mbtree=0 / bitrate=6700 / ratetol=1.6 / qcomp=0.70 / qpmin=0 / qpmax=69 / qpstep=4 / cplxblur=20.0 / qblur=0.5 / vbv_maxrate=50000 / vbv_bufsize=62500 / nal_hrd=none / filler=0 / ip_ratio=1.30 / pb_ratio=1.20 / aq=2:1.00 / zones=138753,145544,b=0.24
Язык : English
Default : Да
Forced : Нет
Аудио #1
Идентификатор : 2
Формат : DTS
Формат/Информация : Digital Theater Systems
Режим : 16
Параметр Endianness формата : Big
Идентификатор кодека : A_DTS
Продолжительность : 1 ч. 41 м.
Вид битрейта : Постоянный
Битрейт : 1509 Кбит/сек
Каналы : 6 каналов
Расположение каналов : Front: L C R, Side: L R, LFE
Частота : 48,0 КГц
Битовая глубина : 24 бит
Метод сжатия : С потерями
Размер потока : 1,07 Гбайт (13%)
Заголовок : DTS 5.1 @ 1509 kbps - Dub
Язык : Russian
Default : Нет
Forced : Нет
Аудио #2
Идентификатор : 3
Формат : DTS
Формат/Информация : Digital Theater Systems
Режим : 16
Параметр Endianness формата : Big
Идентификатор кодека : A_DTS
Продолжительность : 1 ч. 41 м.
Вид битрейта : Постоянный
Битрейт : 1509 Кбит/сек
Каналы : 6 каналов
Расположение каналов : Front: L C R, Side: L R, LFE
Частота : 48,0 КГц
Битовая глубина : 24 бит
Метод сжатия : С потерями
Размер потока : 1,07 Гбайт (13%)
Заголовок : DTS 5.1 @ 1509 kbps - VO, Matveev
Язык : Russian
Default : Нет
Forced : Нет
Аудио #3
Идентификатор : 4
Формат : AC-3
Формат/Информация : Audio Coding 3
Расширение режима : CM (complete main)
Параметр Endianness формата : Big
Идентификатор кодека : A_AC3
Продолжительность : 1 ч. 41 м.
Вид битрейта : Постоянный
Битрейт : 640 Кбит/сек
Каналы : 6 каналов
Расположение каналов : Front: L C R, Side: L R, LFE
Частота : 48,0 КГц
Битовая глубина : 16 бит
Метод сжатия : С потерями
Размер потока : 463 Мбайт (5%)
Заголовок : АС3 5.1 @ 640 kbps - VO, Esarev
Язык : Russian
Default : Нет
Forced : Нет
Аудио #4
Идентификатор : 5
Формат : DTS
Формат/Информация : Digital Theater Systems
Режим : 16
Параметр Endianness формата : Big
Идентификатор кодека : A_DTS
Продолжительность : 1 ч. 41 м.
Вид битрейта : Постоянный
Битрейт : 1509 Кбит/сек
Каналы : 6 каналов
Расположение каналов : Front: L C R, Side: L R, LFE
Частота : 48,0 КГц
Битовая глубина : 24 бит
Метод сжатия : С потерями
Размер потока : 1,07 Гбайт (13%)
Заголовок : DTS 5.1 @ 1509 kbps - Original
Язык : English
Default : Нет
Forced : Нет
Текст #1
Идентификатор : 6
Формат : UTF-8
Идентификатор кодека : S_TEXT/UTF8
Идентификатор кодека/Информация : UTF-8 Plain Text
Заголовок : Full, Matveev [Softly]
Язык : Russian
Default : Нет
Forced : Нет
Текст #2
Идентификатор : 7
Формат : UTF-8
Идентификатор кодека : S_TEXT/UTF8
Идентификатор кодека/Информация : UTF-8 Plain Text
Заголовок : Full, Matveev [Uncensored]
Язык : Russian
Default : Нет
Forced : Нет
Текст #3
Идентификатор : 8
Формат : UTF-8
Идентификатор кодека : S_TEXT/UTF8
Идентификатор кодека/Информация : UTF-8 Plain Text
Заголовок : Full
Язык : Ukrainian
Default : Нет
Forced : Нет
Текст #4
Идентификатор : 9
Формат : UTF-8
Идентификатор кодека : S_TEXT/UTF8
Идентификатор кодека/Информация : UTF-8 Plain Text
Заголовок : Full v1
Язык : English
Default : Нет
Forced : Нет
Текст #5
Идентификатор : 10
Формат : UTF-8
Идентификатор кодека : S_TEXT/UTF8
Идентификатор кодека/Информация : UTF-8 Plain Text
Заголовок : Full v2
Язык : English
Default : Нет
Forced : Нет
Текст #6
Идентификатор : 11
Формат : UTF-8
Идентификатор кодека : S_TEXT/UTF8
Идентификатор кодека/Информация : UTF-8 Plain Text
Заголовок : Full SDH
Язык : English
Default : Нет
Forced : Нет
Текст #7
Идентификатор : 12
Формат : UTF-8
Идентификатор кодека : S_TEXT/UTF8
Идентификатор кодека/Информация : UTF-8 Plain Text
Заголовок : Full SDH Colored
Язык : English
Default : Нет
Forced : Нет
Меню
00:00:00.000 : :Chapter 01
00:04:56.462 : :Chapter 02
00:12:21.240 : :Chapter 03
00:17:07.401 : :Chapter 04
00:26:25.417 : :Chapter 05
00:32:40.875 : :Chapter 06
00:36:25.433 : :Chapter 07
00:42:17.201 : :Chapter 08
00:45:34.648 : :Chapter 09
00:55:04.467 : :Chapter 10
00:59:29.774 : :Chapter 11
01:06:16.055 : :Chapter 12
01:14:19.037 : :Chapter 13
01:19:16.460 : :Chapter 14
01:27:33.706 : :Chapter 15
01:32:29.001 : :Chapter 16
01:41:10.397 : :Chapter 17
x264 log
x264 [info]: frame I:1070 Avg QP:12.13 size:136164
x264 [info]: frame P:33960 Avg QP:14.22 size: 59801
x264 [info]: frame B:110515 Avg QP:15.26 size: 26301
x264 [info]: consecutive B-frames: 3.6% 3.7% 9.0% 22.4% 16.4% 28.0% 7.5% 4.3% 1.5% 1.5% 0.6% 0.7% 0.7%
x264 [info]: ref P L0: 52.6% 7.6% 16.4% 7.9% 5.5% 4.2% 3.3% 2.1% 0.4% 0.0%
x264 [info]: ref B L0: 72.6% 12.1% 6.5% 3.3% 2.5% 1.9% 1.0%
x264 [info]: ref B L1: 90.8% 9.2%
Скриншоты Цитата:
** - субтитры А. Матвеева, представлены в двух вариантах: 1) исходные - без цензуры, 2) мат убран/смягчен + косметические правки.
Скачать

Скачать торрент!

Как скачивать? · Что такое торрент? · Рейтинг и ограничения

Сайт не распространяет и не хранит электронные версии произведений, а лишь предоставляет доступ к создаваемому пользователями каталогу ссылок на торрент-файлы, которые содержат только списки хеш-сумм

[Профиль] [ЛС]
Показать сообщения:    
Ответить на тему

Текущее время: Сегодня 19:23

Часовой пояс: GMT + 4



Вы не можете начинать темы
Вы не можете отвечать на сообщения
Вы не можете редактировать свои сообщения
Вы не можете удалять свои сообщения
Вы не можете голосовать в опросах
Вы не можете прикреплять файлы к сообщениям
Вы не можете скачивать файлы