Пираты / Pirates / Hae-jeok: Ba-da-ro gan san-jeok (Ли Сок Хун / Seok-hoon Lee) [2014, Южная Корея, история, комедия, приключения, HDRip] DVO (GREEN TEA)

Ответить на тему
 
Автор Сообщение

user ®

Стаж: 13 лет

Сообщений: 15071

Пост Пост: #1 от 13-Фев-2015 10:30

[Цитировать]

Пираты / Pirates / Hae-jeok: Ba-da-ro gan san-jeok- -Страна: Южная Корея
Жанр: история, комедия, приключения
Год выпуска: 2014
Продолжительность: 02:09:48-Перевод: Любительский (двухголосый закадровый) [Ольга Гринтиева, Константин Романов] по переводу [Эльза Нордж]-Cубтитры: нет
Оригинальная аудиодорожка: нет
Режиссер: Ли Сок Хун / Seok-hoon Lee
В ролях: Ким Нам Гил, Сон Ё Чжин, Ю Хэ Чжин, Ли Кён Ён, Тхэ-у Ким, Пак Чхоль Мин, Won-hae Kim, Чо Даль Хван, Син Чжон Гын, Чхве Соль Ри...
Описание: Фильм рассказывает о эпохе Чосон. Банда пиратов под предводительством Сон Е Чжин соперничает с бандой горных разбойников, спустившихся на море в поисках фортуны, во главе с Ким Нам Гилем. Их ждет охота за призраком кита, проглотившем корабль с сокровищами, самым ценным из которых является «королевская печать» — подарок китайского императора корейскому.
Релиз от - &
Сэмпл: http://multi-up.com/1032361
Качество видео: HDRip
Формат видео: AVI
Видео: MPEG-4 Visual at 1414 Кбит/сек; 720 x 304 (2.368) at 24.000 fps
Аудио: AC-3 at 192 Кбит/сек; 2 канала, 48,0 КГц
Автор -
MediaInfo
Общее
Полное имя : D:\Фильмы\Азиатские\Пираты\Pirates.2014.HDRip.XviD.1400MB. rip by [Assassin's Creed].avi
Формат : AVI
Формат/Информация : Audio Video Interleave
Размер файла : 1,46 Гбайт
Продолжительность : 2 ч. 9 м.
Общий поток : 1616 Кбит/сек
Программа кодирования : VirtualDubMod 1.5.10.3 | www.virtualdub-fr.org || (build 2550/release)
Библиотека кодирования : VirtualDubMod build 2550/release
Видео
Идентификатор : 0
Формат : MPEG-4 Visual
Профиль формата : Advanced Simple@L5
Параметр BVOP формата : 1
Параметр QPel формата : Нет
Параметр GMC формата : Без точки перехода
Параметр матрицы формата : Default (MPEG)
Идентификатор кодека : XVID
Идентификатор кодека/Подсказка : XviD
Продолжительность : 2 ч. 9 м.
Битрейт : 1414 Кбит/сек
Ширина : 720 пикселей
Высота : 304 пикселя
Соотношение сторон : 2,35:1
Частота кадров : 24,000 кадра/сек
Цветовое пространство : YUV
Субдискретизация насыщенности : 4:2:0
Битовая глубина : 8 бит
Тип развёртки : Прогрессивная
Метод сжатия : С потерями
Бит/(Пиксели*Кадры) : 0.269
Размер потока : 1,28 Гбайт (88%)
Библиотека кодирования : XviD 1.2.1 (UTC 2008-12-04)
Аудио
Идентификатор : 1
Формат : AC-3
Формат/Информация : Audio Coding 3
Расширение режима : CM (complete main)
Параметр Endianness формата : Big
Идентификатор кодека : 2000
Продолжительность : 2 ч. 9 м.
Вид битрейта : Постоянный
Битрейт : 192 Кбит/сек
Каналы : 2 канала
Расположение каналов : Front: L R
Частота : 48,0 КГц
Битовая глубина : 16 бит
Метод сжатия : С потерями
Размер потока : 178 Мбайт (12%)
Выравнивание : Разделение по промежуткам
Продолжительность промежутка : 42 мс. (1,00 видеокадр)
Время предзагрузки промежутка : 500 мс.
Скриншот c названием фильма Скриншоты
Скачать

Скачать торрент! Пираты / Pirates / Hae-jeok: Ba-da-ro gan san-jeok (Ли Сок Хун / Seok-hoon Lee) [2014, Южная Корея, история, комедия, приключения, HDRip] DVO (GREEN TEA)

Как скачивать? · Что такое торрент? · Рейтинг и ограничения

Сайт не распространяет и не хранит электронные версии произведений, а лишь предоставляет доступ к создаваемому пользователями каталогу ссылок на торрент-файлы, которые содержат только списки хеш-сумм

[Профиль] [ЛС]
Показать сообщения:    
Ответить на тему

Текущее время: Сегодня 21:20

Часовой пояс: GMT + 4



Вы не можете начинать темы
Вы не можете отвечать на сообщения
Вы не можете редактировать свои сообщения
Вы не можете удалять свои сообщения
Вы не можете голосовать в опросах
Вы не можете прикреплять файлы к сообщениям
Вы не можете скачивать файлы