Храм Шаолиня / Храм Шаолинь / Монастырь Шаолинь / Шаолиньский монастырь / Shao Lin Si / Shaolin Si / The Shaolin Temple (Чжан Синьянь / Zhang Xinyan) [1982, Китай, Гонконг, Боевые искусства, HDRip] [Полная китайская (гонконгская) версия] AVO Королев

Ответить на тему
 
Автор Сообщение

user ®

Стаж: 13 лет

Сообщений: 15071

Пост Пост: #1 от 12-Фев-2015 19:30

[Цитировать]

Храм Шаолиня / Храм Шаолинь / Монастырь Шаолинь / Шаолиньский монастырь / Shao Lin Si / Shaolin Si / The Shaolin Temple / Полная китайская (гонконгская) версия
Страна: Китай, Гонконг
Жанр: Боевые искусства
Год выпуска: 1982
Продолжительность: 1:39:55
Перевод: Авторский (одноголосый закадровый) Владимир Королев
Cубтитры: нет
Оригинальная аудиодорожка: нет
Режиссер: Чжан Синьянь / Zhang Xinyan
В ролях: Джет Ли (в титрах - Ли Лянцзе), Янь Цзихуа, Чжи Чуньхуа, Ван Цзюэ, Сунь Цзянькуй, Дин Лань, Лю Хуайлян, Пань Цинфу, Цуй Чжицян, Ху Цзяньцян, Ван Гуанцюань, Чжан Цзяньвэнь, Ду Чуаньян, Юй Чэнхуэй, Юй Хай и др.
Описание: Действие происходит в Китае в VII веке н. э. Второй император династии Тан Ли Шиминь был предан одним из своих генералов, который провозгласил себя императором Восточной столицы. Кроме того, генерал убивает одного из рабов, а сын этого раба — юноша Цзи Юань (Джет Ли) — убегает и находит приют у монахов храма Шаолиня. Под руководством монахов Цзи Юань изучает боевые искусства, желая отомстить убийце своего отца.
Доп. информация: Впервые на трекере!!! Полная китайская (гонконгская) версия!!! Внимание! В начале картины (после заставки киностудии) идет небольшой кусочек продолжительностью 4 минуты 25 секунд - на китайском языке без перевода! Далее следует перевод Королева. Удачного скачивания и приятного просмотра!
Сэмпл: http://multi-up.com/1032552
Качество видео: HDRip (Источник неизвестен)
Формат видео: AVI
Релиз от MEDIACLUB
Автор рипа: Painter
Видео: 720x304 (2.37:1), 23.976 fps, XviD build 73 ~1622 kbps avg, 0.31 bit/pixel
Аудио: 48 kHz, AC3 Dolby Digital, 3/2 (L,C,R,l,r) + LFE ch, ~448 kbps
MediaInfo
Общее
Полное имя : D:\кино\Шаолинь\Кино\01 Hram Shaolinya 1982.avi
Формат : AVI
Формат/Информация : Audio Video Interleave
Размер файла : 1,45 Гбайт
Продолжительность : 1 ч. 39 м.
Общий поток : 2080 Кбит/сек
Название фильма : = MediaClub = rip by Painter
Программа кодирования : VirtualDubMod 1.5.10.3 (build 2550/release)
Библиотека кодирования : VirtualDubMod build 2550/release
Видео
Идентификатор : 0
Формат : MPEG-4 Visual
Профиль формата : Advanced Simple@L5
Параметр BVOP формата : 1
Параметр QPel формата : Нет
Параметр GMC формата : Без точки перехода
Параметр матрицы формата : Выборочная
Идентификатор кодека : XVID
Идентификатор кодека/Подсказка : XviD
Продолжительность : 1 ч. 39 м.
Битрейт : 1623 Кбит/сек
Ширина : 720 пикселей
Высота : 304 пикселя
Соотношение сторон : 2,35:1
Частота кадров : 23,976 кадра/сек
Цветовое пространство : YUV
Субдискретизация насыщенности : 4:2:0
Битовая глубина : 8 бит
Тип развёртки : Прогрессивная
Метод сжатия : С потерями
Бит/(Пиксели*Кадры) : 0.309
Размер потока : 1,13 Гбайт (78%)
Библиотека кодирования : XviD 73
Аудио
Идентификатор : 1
Формат : AC-3
Формат/Информация : Audio Coding 3
Расширение режима : CM (complete main)
Параметр Endianness формата : Big
Идентификатор кодека : 2000
Продолжительность : 1 ч. 39 м.
Вид битрейта : Постоянный
Битрейт : 448 Кбит/сек
Каналы : 6 каналов
Расположение каналов : Front: L C R, Side: L R, LFE
Частота : 48,0 КГц
Битовая глубина : 16 бит
Метод сжатия : С потерями
Размер потока : 320 Мбайт (22%)
Выравнивание : Разделение по промежуткам
Продолжительность промежутка : 42 мс. (1,00 видеокадр)
Время предзагрузки промежутка : 500 мс.
Скриншот c названием фильма Скриншоты Награды
В 1983 году фильм «Храм Шаолиня» номинировался на Гонконгскую кинопремию (Hong Kong Film Award) в категории «Лучшая хореография боя» (Юй Чэнхуй)
Интересные факты
Съёмки фильма проходили в провинции Хунань. В качестве «декораций» использовался реальный буддийский храм.
Хотя монастырь Шаолинь существует на самом деле, в фильме показано вовсе не боевое искусство монахов этого храма, а современная спортивная гимнастика ушу.
В 2011 году вышел ремейк «Новый храм Шаолинь» с Джеки Чаном в одной из главных ролей.
Актриса Qiuyan Huang исполнительница женской роли стала женой Джета Ли. Брак 1987—1990, две дочери.
Дети Шаолиня (Храм Шаолиня 2) здесь: [url=http://***/forum/viewtopic.php?t=4937781]http://***/forum/viewtopic.php?t=4937781[/url]
Скачать

Скачать торрент! Храм Шаолиня / Храм Шаолинь / Монастырь Шаолинь / Шаолиньский монастырь / Shao Lin Si / Shaolin Si / The Shaolin Temple (Чжан Синьянь / Zhang Xinyan) [1982, Китай, Гонконг, Боевые искусства, HDRip] [Полная китайская (гонконгская) версия] AVO Королев

Как скачивать? · Что такое торрент? · Рейтинг и ограничения

Сайт не распространяет и не хранит электронные версии произведений, а лишь предоставляет доступ к создаваемому пользователями каталогу ссылок на торрент-файлы, которые содержат только списки хеш-сумм

[Профиль] [ЛС]
Показать сообщения:    
Ответить на тему

Текущее время: Сегодня 22:15

Часовой пояс: GMT + 4



Вы не можете начинать темы
Вы не можете отвечать на сообщения
Вы не можете редактировать свои сообщения
Вы не можете удалять свои сообщения
Вы не можете голосовать в опросах
Вы не можете прикреплять файлы к сообщениям
Вы не можете скачивать файлы