Стрингер / Nightcrawler (Дэн Гилрой / Dan Gilroy) [2014, США, триллер, драма, криминал, BDRip 720p] VO (Матвеев) + Sub Rus, Eng + Original Eng

Ответить на тему
 
Автор Сообщение

user ®

Стаж: 7 лет 7 месяцев

Сообщений: 20008

Пост Пост: #1 от 12-Фев-2015 19:30

[Цитировать]

--Стрингер / Nightcrawler--«Ночью город сияет ярче»- Страна: США
Студия: Bold Films
Жанр: триллер, драма, криминал
Год выпуска: 2014
Продолжительность: 01:58:05-Перевод: Одноголосый закадровый А.Матвеев
Cубтитры: Русские (полные), Английские (полные), Английские (SDH)
Оригинальная аудиодорожка: английский-Режиссер: Дэн Гилрой / Dan Gilroy-В ролях: Джейк Джилленхол, Рене Руссо, Билл Пэкстон, Джонни Койн, Энн МакДэниелс, Риз Ахмед, Джейми МакШейн, Кэтлин Йорк, Эрик Ланж, Майкл Хайатт
Описание: Криминальная драма, события которой разворачиваются в современном Лос-Анджелесе, расскажет историю молодого парня, открывшего для себя подпольный мир независимой криминальной журналистики...-| Сэмпл | IMDB | КиноПоиск |
-Тип релиза: BDRip 720p |Christ @ VietHD|
Контейнер: MKV
Видео: x.264, NTSC 23.976, 1280x534, 8768 кбит/с
Аудио: Русский: DTS, 6ch (L, C, R, Ls, Rs +LFE), 1536 кбит/с |А.Матвеев|
Аудио 2: Английский: DTS, 6ch (L, C, R, Ls, Rs +LFE), 1536 кбит/с
Аудио 3: Английский: AC3, 2ch (L,R), 192 кбит/с |Audio commentary featuring Dan Gilroy, Tony Gilroy and John Gilroy|
Формат субтитров: softsub (SRT)
Главы: как на Blu-ray (20 шт.)

Награды
Оскар, 2015 год
Номинации (1):
Лучший сценарий
Золотой глобус, 2015 год
Номинации (1):
Лучшая мужская роль (драма) (Джейк Джилленхол)
Британская академия, 2015 год
Номинации (4):
Лучшая мужская роль (Джейк Джилленхол)
Лучшая женская роль второго плана (Рене Руссо)
Лучший оригинальный сценарий
Лучший монтаж
Премия Гильдии актеров, 2015 год
Номинации (1):
Лучшая мужская роль (Джейк Джилленхол)
Примечания переводчика
Перевод получился насыщенный и обильно сдобренный специальной лексикой, в т.ч. из тележурналистики и не только.
Работа велась с открытым сценарием Дэна Гилроя, непонятные моменты выискивались там.
К переводу прилагается глоссарий:
Неологизмы:
фрилансер - человек вольного найма
найткроулер - человек, ведущий ночной образ жизни
найткроулинг - деятельность, осуществляемая под покровом ночи
стрингер - вольнонаёмный журналист
тайминг - место на временной дорожке файла
ньюсрум - студия новостей, в которой сидят редакторы, журналисты, монтажёры
лид - центральный сюжет, чаще всего с него начинают выпуск новостей; часть репортажа, "цепляющая зрителя"
лайв - прямой эфир
войсовер - закадровый текст, читаемый во время показа кадров хроники/материала
назначенный диспетчер - диспетчер, работающий с одним патрулём; противовес т.н. "региональному" диспетчеру, обслуживающему многие патрули.
зум - увеличение у видеокамеры/фотоаппарата
"почти несвободные" отношения - отношения, в которых партнёр позволяет себе раз в какое-то там время сходить на сторону; отличие от т.н. "свободных" отношений, в том, что верность партнёру хранится на 99%
з/п - зарплата
GPS - сокращение от "GPS-навигатора"
Хартфорд - страховая столица Америки, где и шагу ступить нельзя, чтобы тебя за что-то не засудили или не предложили застраховаться
ватермарка - "водяной знак", клеймо на картинке или видеоролике, показывающее, кому принадлежит материал
агрегатор новостей - сервис, собирающий самые интересные новости в одну кучу
наплыв - постепенное превращение одного изображения в другое, причём первое уходит в затемнение, а второе одновременно появляется из затемнения
шэйр - доля аудитории передачи
главная тема - музыка, играющая на заставке передачи
РВП - расчётное время прибытия
Названия стрингеров-соперников:
Видео-Ас - и так понятно, что значит
Мэйхем - переводится как "Разгром"
Значения полицейских кодов:
Код 2 - Обычный вызов, ехать с выключенными сиренами
Код 3 - Срочный вызов, ехать со включёнными сиренами
Код 6 - Полицейский покинул машину для патрулирования
Код 10 - Запрос на прогон частоты по преступлениям
Код 37 - Украдена машина
1-87 - Убийство
2-11 - Вооружённое ограбление
4-15 - Нарушение общественного порядка
MediaInfo
Общее
Уникальный идентификатор : 208309547801567952779063027359666602125 (0x9CB6F5A71E692DB99EBFB409375B008D)
Полное имя : F:\BD torrent\mytorrentsup\Nightcrawler.2014.720p.BluRay.x264.Rus.2xEng.dts.ac3.VietHD.mkv
Формат : Matroska
Версия формата : Version 4 / Version 2
Размер файла : 10,1 Гбайт
Продолжительность : 1 ч. 58 м.
Общий поток : 12,2 Мбит/сек
Дата кодирования : UTC 2015-02-10 13:11:36
Программа кодирования : mkvmerge v7.3.0 ('Nouages') 64bit built on Oct 22 2014 18:53:34
Библиотека кодирования : libebml v1.3.0 + libmatroska v1.4.1
_STATISTICS_WRITING_APP : mkvmerge v7.3.0 ('Nouages') 64bit built on Oct 22 2014 18:53:34
_STATISTICS_WRITING_DATE_UTC : 2015-02-10 13:11:36
_STATISTICS_TAGS : BPS DURATION NUMBER_OF_FRAMES NUMBER_OF_BYTES
DURATION : 01:52:46.018000000
NUMBER_OF_FRAMES : 1429
NUMBER_OF_BYTES : 106441
Видео
Идентификатор : 1
Формат : AVC
Формат/Информация : Advanced Video Codec
Профиль формата : High@L4.1
Параметр CABAC формата : Да
Параметр ReFrames формата : 12 кадров
Идентификатор кодека : V_MPEG4/ISO/AVC
Продолжительность : 1 ч. 58 м.
Битрейт : 8769 Кбит/сек
Ширина : 1280 пикселей
Высота : 534 пикселя
Соотношение сторон : 2,40:1
Соотношение сторон в оригинале : 2,40:1
Режим частоты кадров : Постоянный
Частота кадров : 23,976 кадра/сек
Цветовое пространство : YUV
Субдискретизация насыщенности : 4:2:0
Битовая глубина : 8 бит
Тип развёртки : Прогрессивная
Бит/(Пиксели*Кадры) : 0.535
Размер потока : 7,23 Гбайт (72%)
Заголовок : VietHD
Библиотека кодирования : x264 core 142 r2431+42 c69a006 tMod [8-bit@4:2:0 X86_64]
Настройки программы : cabac=1 / ref=12 / deblock=1:-3:-3 / analyse=0x3:0x133 / me=tesa / subme=10 / psy=1 / fade_compensate=0.00 / psy_rd=1.08:0.00 / mixed_ref=1 / me_range=24 / chroma_me=1 / trellis=2 / 8x8dct=1 / cqm=0 / deadzone=21,11 / fast_pskip=1 / chroma_qp_offset=-2 / threads=12 / lookahead_threads=2 / sliced_threads=0 / nr=0 / decimate=1 / interlaced=0 / bluray_compat=0 / constrained_intra=0 / fgo=0 / bframes=9 / b_pyramid=2 / b_adapt=2 / b_bias=0 / direct=3 / weightb=1 / open_gop=0 / weightp=2 / keyint=250 / keyint_min=23 / scenecut=40 / intra_refresh=0 / rc=crf / mbtree=0 / crf=15.7000 / qcomp=0.65 / qpmin=0:0:0 / qpmax=69:69:69 / qpstep=4 / ip_ratio=1.30 / pb_ratio=1.20 / aq=4:0.68 / aq-sensitivity=10.00 / aq-factor=1.00:1.00:1.00 / aq2=0 / aq3=0
Язык : English
Default : Да
Forced : Нет
Коэффициенты матрицы : BT.709
_STATISTICS_WRITING_APP : mkvmerge v7.3.0 ('Nouages') 64bit built on Oct 22 2014 18:53:34
_STATISTICS_WRITING_DATE_UTC : 2015-02-10 13:11:36
_STATISTICS_TAGS : BPS DURATION NUMBER_OF_FRAMES NUMBER_OF_BYTES
DURATION : 01:58:05.245000000
NUMBER_OF_FRAMES : 169876
NUMBER_OF_BYTES : 7978664787
Аудио #1
Идентификатор : 2
Формат : DTS
Формат/Информация : Digital Theater Systems
Режим : 16
Параметр Endianness формата : Big
Идентификатор кодека : A_DTS
Продолжительность : 1 ч. 58 м.
Вид битрейта : Постоянный
Битрейт : 1509 Кбит/сек
Каналы : 6 каналов
Расположение каналов : Front: L C R, Side: L R, LFE
Частота : 48,0 КГц
Битовая глубина : 24 бит
Метод сжатия : С потерями
Размер потока : 1,24 Гбайт (12%)
Заголовок : А.Матвеев
Язык : Russian
Default : Да
Forced : Нет
Аудио #2
Идентификатор : 3
Формат : DTS
Формат/Информация : Digital Theater Systems
Режим : 16
Параметр Endianness формата : Big
Идентификатор кодека : A_DTS
Продолжительность : 1 ч. 58 м.
Вид битрейта : Постоянный
Битрейт : 1509 Кбит/сек
Каналы : 6 каналов
Расположение каналов : Front: L C R, Side: L R, LFE
Частота : 48,0 КГц
Битовая глубина : 24 бит
Метод сжатия : С потерями
Размер потока : 1,24 Гбайт (12%)
Язык : English
Default : Нет
Forced : Нет
Аудио #3
Идентификатор : 4
Формат : AC-3
Формат/Информация : Audio Coding 3
Профиль формата : Dolby Digital
Расширение режима : CM (complete main)
Параметр Endianness формата : Big
Идентификатор кодека : A_AC3
Продолжительность : 1 ч. 58 м.
Вид битрейта : Постоянный
Битрейт : 192 Кбит/сек
Каналы : 2 канала
Расположение каналов : Front: L R
Частота : 48,0 КГц
Битовая глубина : 16 бит
Метод сжатия : С потерями
Размер потока : 162 Мбайт (2%)
Заголовок : Audio commentary featuring Dan Gilroy, Tony Gilroy and John Gilroy
Язык : English
Default : Нет
Forced : Нет
Текст #1
Идентификатор : 5
Формат : UTF-8
Идентификатор кодека : S_TEXT/UTF8
Идентификатор кодека/Информация : UTF-8 Plain Text
Язык : Russian
Default : Да
Forced : Нет
Текст #2
Идентификатор : 6
Формат : UTF-8
Идентификатор кодека : S_TEXT/UTF8
Идентификатор кодека/Информация : UTF-8 Plain Text
Язык : English
Default : Нет
Forced : Нет
Текст #3
Идентификатор : 7
Формат : UTF-8
Идентификатор кодека : S_TEXT/UTF8
Идентификатор кодека/Информация : UTF-8 Plain Text
Заголовок : SDH
Язык : English
Default : Нет
Forced : Нет
Меню
00:00:00.000 : en:00:00:00.000
00:06:24.509 : en:00:06:24.509
00:11:22.849 : en:00:11:22.849
00:16:16.350 : en:00:16:16.350
00:23:49.803 : en:00:23:49.803
00:30:47.054 : en:00:30:47.054
00:36:29.521 : en:00:36:29.521
00:42:44.479 : en:00:42:44.479
00:46:55.604 : en:00:46:55.604
00:53:16.735 : en:00:53:16.735
01:00:54.150 : en:01:00:54.150
01:07:27.252 : en:01:07:27.252
01:13:05.798 : en:01:13:05.798
01:18:23.908 : en:01:18:23.908
01:25:06.059 : en:01:25:06.059
01:29:24.150 : en:01:29:24.150
01:36:17.981 : en:01:36:17.981
01:44:54.830 : en:01:44:54.830
01:48:37.553 : en:01:48:37.553
01:53:45.944 : en:01:53:45.944
x264

x264 [info]: frame I:1282 Avg QP:13.52 size:146982
x264 [info]: frame P:33349 Avg QP:14.82 size: 67423
x264 [info]: frame B:135245 Avg QP:16.52 size: 40977
x264 [info]: consecutive B-frames: 1.7% 2.4% 6.2% 8.5% 13.6% 49.7% 9.7% 2.6% 3.3% 2.4%
encoded 169876 frames, 3.370 fps, 9008.93 kb/s, 7609.2 MB
Скриншоты Скриншоты сравнения: Source / VietHD
Скачать

Скачать торрент!

Как скачивать? · Что такое торрент? · Рейтинг и ограничения

Сайт не распространяет и не хранит электронные версии произведений, а лишь предоставляет доступ к создаваемому пользователями каталогу ссылок на торрент-файлы, которые содержат только списки хеш-сумм

[Профиль] [ЛС]
Показать сообщения:    
Ответить на тему

Текущее время: Сегодня 02:06

Часовой пояс: GMT + 4



Вы не можете начинать темы
Вы не можете отвечать на сообщения
Вы не можете редактировать свои сообщения
Вы не можете удалять свои сообщения
Вы не можете голосовать в опросах
Вы не можете прикреплять файлы к сообщениям
Вы не можете скачивать файлы