Еще один год (Оксана Бычкова) [2014, мелодрама, WEB-DLRip] [iTunes]

Ответить на тему
 
Автор Сообщение

user ®

Стаж: 7 лет 7 месяцев

Сообщений: 20008

Пост Пост: #1 от 12-Фев-2015 15:45

[Цитировать]

Еще один год
Жанр: мелодрама
Год выпуска: 2014
Продолжительность: 01:47:33
Режиссёр: Оксана Бычкова
В ролях: Алексей Филимонов, Надежда Лумпова
Описание: История возникновения страстной любви сквозь боль, страдания и слезы. Вряд ли в арсенале человеческих чувств и эмоций найдется что-то ярче и желаннее, чем любовь и страсть. Они редко ходят по отдельности, все больше вместе, сплетаются в один узел и путают без того подчас сложные отношения. Он — бомбила, подрабатывающий по ночам, она — начинающий веб-дизайнер в модном СМИ. Любви в этих отношения сполна, но они из разных социальных слоев, у них разные интересы. Эти различия, в комбинации с бешеной страстью, постепенно достигают своего апогея. И все это происходит в течение года. Они маются, расстаются, сходятся, любят, ненавидят, занимаются любовью и снова убегают друг от друга и от себя. Что творится в головах и сердцах этих людей не понимает никто, но самое интересное, а знают ли они сами?

Качество видео: WEB-DLRip (Исх. WEB-DL 720p)
Формат видео: AVI
Видео: 720x384 (1.88:1), 24 fps, XviD build 73 ~2274 kbps avg, 0.34 bit/pixel
Аудио: 48 kHz, AC3 Dolby Digital, 3/2 (L,C,R,l,r) + LFE ch, ~448.00 kbps avg
MediaInfo
Общее
Полное имя : S:\Фильмы\Еще один год. 2014. WEB-DLRip. 2.05 (AleksSin).avi
Формат : AVI
Формат/Информация : Audio Video Interleave
Профиль формата : OpenDML
Размер файла : 2,05 Гбайт
Продолжительность : 1 ч. 47 м.
Общий поток : 2735 Кбит/сек
Программа кодирования : VirtualDubMod 1.5.10.3 | (build 2550/release)
Библиотека кодирования : VirtualDubMod build 2550/release
Видео
Идентификатор : 0
Формат : MPEG-4 Visual
Профиль формата : Advanced Simple@L5
Параметр BVOP формата : 1
Параметр QPel формата : Нет
Параметр GMC формата : Без точки перехода
Параметр матрицы формата : Выборочная
Идентификатор кодека : XVID
Идентификатор кодека/Подсказка : XviD
Продолжительность : 1 ч. 47 м.
Битрейт : 2274 Кбит/сек
Ширина : 720 пикс.
Высота : 384 пикс.
Соотношение сторон : 1,875
Частота кадров : 24,000 кадр/сек
Цветовое пространство : YUV
Подвыборка цветности : 4:2:0
Битовая глубина : 8 бит
Тип развёртки : Прогрессивная
Метод сжатия : С потерями
Бит/(Пиксели*Кадры) : 0.343
Размер потока : 1,71 Гбайт (83%)
Библиотека кодирования : XviD 73
Аудио
Идентификатор : 1
Формат : AC-3
Формат/Информация : Audio Coding 3
Расширение режима : CM (complete main)
Идентификатор кодека : 2000
Продолжительность : 1 ч. 47 м.
Вид битрейта : Постоянный
Битрейт : 448 Кбит/сек
Каналы : 6 каналов
Расположение каналов : Front: L C R, Side: L R, LFE
Частота : 48,0 КГц
Битовая глубина : 16 бит
Метод сжатия : С потерями
Размер потока : 345 Мбайт (16%)
Выравнивание : Разделение по промежуткам
Продолжительность промежутка : 42 мс. (1,00 видеокадр)
Время предзагрузки промежутка : 500 ms
Скриншот c названием фильма Скриншоты
Скачать

Скачать торрент!

Как скачивать? · Что такое торрент? · Рейтинг и ограничения

Сайт не распространяет и не хранит электронные версии произведений, а лишь предоставляет доступ к создаваемому пользователями каталогу ссылок на торрент-файлы, которые содержат только списки хеш-сумм

[Профиль] [ЛС]
Показать сообщения:    
Ответить на тему

Текущее время: Сегодня 05:04

Часовой пояс: GMT + 4



Вы не можете начинать темы
Вы не можете отвечать на сообщения
Вы не можете редактировать свои сообщения
Вы не можете удалять свои сообщения
Вы не можете голосовать в опросах
Вы не можете прикреплять файлы к сообщениям
Вы не можете скачивать файлы