Бивень / Tusk (Кевин Смит / Kevin Smith) [2014, США, Комедия, Триллер, Ужасы, BDRip 1080p] Dub + Sub Rus, Eng + Original Eng

Ответить на тему
 
Автор Сообщение

user ®

Стаж: 7 лет 7 месяцев

Сообщений: 20008

Пост Пост: #1 от 11-Фев-2015 19:51

[Цитировать]

Бивень / Tusk
Страна: США
Жанр: Комедия, Триллер, Ужасы
Год выпуска: 2014
Продолжительность: 01:44:56
Перевод: Профессиональный (дублированный)
Cубтитры: Rus (M0ntana Нецензурные), Eng
Оригинальная аудиодорожка: английский
Режиссер: Кевин Смит / Kevin Smith
В ролях: Майкл Паркс, Джастин Лонг, Дженезис Родригез, Хэйли Джоэл Осмент, Джонни Депп, Харли Моренштейн, Ральф Гармен, Дженнифер Швалбах Смит, Харли Куинн Смит, Лили-Роуз Мелоди Депп
Описание: Журналист Уоллес Брайтон уехал брать интервью и исчез навсегда. Его друг вместе с девушкой Уоллеса отправляется на поиски. Поиски приводят пару к полицейскому в отставке, который много лет занимался поиском пропавших людей и который рассказывает им, что есть некая закономерность в пропаже людей. Люди пропадают, а потом находят их обезображенные кости. Полицейский думает, что все это дело рук серийного убийцы. Считая, что Уоллес каким-то образом попал в его руки, троица идет по следу маньяка, даже не представляя себе, что правда, которую им предстоит узнать, настолько ужасна, что в нее просто невозможно поверить.

Тип релиза: BDRip 1080p
Контейнер: MKV
Видео: MPEG-4 AVC, 8827 Кбит/с, 1920x800, 23,976 fps
Аудио: Rus, AC3, 448 kb/s (6 ch), 48 kHz
Аудио 2: Eng, DTS, 1510 kb/s (6 ch), 48 kHz
Формат субтитров: softsub (SRT)
MediaInfo
x264 [info]: frame I:1122 Avg QP:14.86 size:164468
x264 [info]: frame P:27491 Avg QP:16.84 size: 72473
x264 [info]: frame B:122343 Avg QP:16.94 size: 40466
Format : Matroska
Format version : Version 4 / Version 2
File size : 8.06 GiB
Duration : 1h 44mn
Overall bit rate : 11.0 Mbps
Movie name : Tonik
Encoded date : UTC 2015-02-10 13:09:07
Writing application : mkvmerge v7.1.0 ('Good Love') 64bit built on Jul 27 2014 13:06:55
Writing library : libebml v1.3.0 + libmatroska v1.4.1
_STATISTICS_WRITING_APP : mkvmerge v7.1.0 ('Good Love') 64bit built on Jul 27 2014 13:06:55
_STATISTICS_WRITING_DATE_UTC : 2015-02-10 13:09:07
_STATISTICS_TAGS : BPS DURATION NUMBER_OF_FRAMES NUMBER_OF_BYTES
DURATION : 01:44:56.129000000
NUMBER_OF_FRAMES : 590262
NUMBER_OF_BYTES : 1187607144
Video
ID : 1
Format : AVC
Format/Info : Advanced Video Codec
Format profile : High@L4.1
Format settings, CABAC : Yes
Format settings, ReFrames : 5 frames
Codec ID : V_MPEG4/ISO/AVC
Duration : 1h 44mn
Bit rate : 8 827 Kbps
Width : 1 920 pixels
Height : 800 pixels
Display aspect ratio : 2.40:1
Frame rate mode : Constant
Frame rate : 23.976 fps
Color space : YUV
Chroma subsampling : 4:2:0
Bit depth : 8 bits
Scan type : Progressive
Bits/(Pixel*Frame) : 0.240
Stream size : 6.47 GiB (80%)
Writing library : x264 core 142 r2431+42 c69a006 tMod [8-bit@all X86_64]
Encoding settings : cabac=1 / ref=5 / deblock=1:-3:-3 / analyse=0x3:0x133 / me=tesa / subme=11 / psy=1 / fade_compensate=0.00 / psy_rd=0.95:0.00 / mixed_ref=1 / me_range=24 / chroma_me=1 / trellis=2 / 8x8dct=1 / cqm=0 / deadzone=21,11 / fast_pskip=0 / chroma_qp_offset=-2 / threads=6 / lookahead_threads=1 / sliced_threads=0 / nr=0 / decimate=0 / interlaced=0 / bluray_compat=0 / constrained_intra=0 / fgo=0 / bframes=8 / b_pyramid=2 / b_adapt=2 / b_bias=0 / direct=3 / weightb=1 / open_gop=0 / weightp=2 / keyint=250 / keyint_min=23 / scenecut=40 / intra_refresh=0 / rc=crf / mbtree=0 / crf=18.0000 / qcomp=0.60 / qpmin=0:0:0 / qpmax=69:69:69 / qpstep=4 / ip_ratio=1.20 / pb_ratio=1.10 / aq=4:0.90 / aq-sensitivity=10.00 / aq-factor=1.00:1.00:1.00 / aq2=0 / aq3=0
Language : English
Default : Yes
Forced : No
DURATION : 01:44:56.123000000
NUMBER_OF_FRAMES : 150956
NUMBER_OF_BYTES : 7127575282
_STATISTICS_WRITING_APP : mkvmerge v7.1.0 ('Good Love') 64bit built on Jul 27 2014 13:06:55
_STATISTICS_WRITING_DATE_UTC : 2015-02-10 13:09:07
_STATISTICS_TAGS : BPS DURATION NUMBER_OF_FRAMES NUMBER_OF_BYTES
Audio #1
ID : 2
Format : AC-3
Format/Info : Audio Coding 3
Mode extension : CM (complete main)
Format settings, Endianness : Big
Codec ID : A_AC3
Duration : 1h 44mn
Bit rate mode : Constant
Bit rate : 448 Kbps
Channel(s) : 6 channels
Channel positions : Front: L C R, Side: L R, LFE
Sampling rate : 48.0 KHz
Bit depth : 16 bits
Compression mode : Lossy
Stream size : 336 MiB (4%)
Language : Russian
Default : Yes
Forced : No
Audio #2
ID : 3
Format : DTS
Format/Info : Digital Theater Systems
Mode : 16
Format settings, Endianness : Big
Codec ID : A_DTS
Duration : 1h 44mn
Bit rate mode : Constant
Bit rate : 1 509 Kbps
Channel(s) : 6 channels
Channel positions : Front: L C R, Side: L R, LFE
Sampling rate : 48.0 KHz
Bit depth : 24 bits
Compression mode : Lossy
Stream size : 1.11 GiB (14%)
Language : English
Default : No
Forced : No
Text #1
ID : 4
Format : UTF-8
Codec ID : S_TEXT/UTF8
Codec ID/Info : UTF-8 Plain Text
Title : M0ntana
Language : Russian
Default : No
Forced : No
Text #2
ID : 5
Format : UTF-8
Codec ID : S_TEXT/UTF8
Codec ID/Info : UTF-8 Plain Text
Language : English
Default : No
Forced : No
Text #3
ID : 6
Format : UTF-8
Codec ID : S_TEXT/UTF8
Codec ID/Info : UTF-8 Plain Text
Title : SDH
Language : English
Default : No
Forced : No
Menu
00:00:00.000 : en:00:00:00.000
00:05:07.933 : en:00:05:07.933
00:10:47.647 : en:00:10:47.647
00:18:09.630 : en:00:18:09.630
00:26:21.121 : en:00:26:21.121
00:30:51.850 : en:00:30:51.850
00:37:19.904 : en:00:37:19.904
00:45:15.338 : en:00:45:15.338
00:51:26.667 : en:00:51:26.667
00:56:34.558 : en:00:56:34.558
01:01:41.823 : en:01:01:41.823
01:08:45.455 : en:01:08:45.455
01:16:57.905 : en:01:16:57.905
01:20:26.155 : en:01:20:26.155
01:25:33.795 : en:01:25:33.795
01:31:42.205 : en:01:31:42.205
Скриншоты
Скачать

Скачать торрент!

Как скачивать? · Что такое торрент? · Рейтинг и ограничения

Сайт не распространяет и не хранит электронные версии произведений, а лишь предоставляет доступ к создаваемому пользователями каталогу ссылок на торрент-файлы, которые содержат только списки хеш-сумм

[Профиль] [ЛС]
Показать сообщения:    
Ответить на тему

Текущее время: Сегодня 21:18

Часовой пояс: GMT + 4



Вы не можете начинать темы
Вы не можете отвечать на сообщения
Вы не можете редактировать свои сообщения
Вы не можете удалять свои сообщения
Вы не можете голосовать в опросах
Вы не можете прикреплять файлы к сообщениям
Вы не можете скачивать файлы