Побудь в моей шкуре / Under the Skin (Джонатан Глейзер / Jonathan Glazer) [2013, Великобритания, США, Швейцария, фантастика, триллер, драма, BDRip 1080p] MVO (R5) + VO (Doctor Joker) + Original (Eng) + Sub (Rus, Eng)

Ответить на тему
 
Автор Сообщение

user ®

Стаж: 7 лет 7 месяцев

Сообщений: 20008

Пост Пост: #1 от 11-Фев-2015 19:51

[Цитировать]

Побудь в моей шкуре / Under the Skin

-
-Страна: Великобритания, США, Швейцария
Студия: British Film Institute (BFI), Creative Scotland, Film4, FilmNation Entertainment
Жанр: фантастика, триллер, драма
Год выпуска: 2013
Продолжительность: 01:47:58--Перевод 1: Профессиональный (многоголосый закадровый) R5
Перевод 2: Одноголосый закадровый Doctor_Joker
Cубтитры: русские (Doctor_Joker, notabenoid), английские
Оригинальная аудиодорожка: английский--Режиссер: Джонатан Глейзер / Jonathan Glazer
В ролях: Скарлетт Йоханссон, Джереми МакУильямс, Линси Тейлор Маккэй, Даги МакКоннелл, Кевин МакАлинден, Д. Мид, Эндрю Горман, Джо Шула, Криштоф Гадек, Рой Армстронг--Описание: Таинственная соблазнительница охотится на жителей Шотландии…--imdb | kinopoisk | Сэмпл--Тип релиза: BDRip 1080p [Under the Skin 2013 Hybrid 1080p BluRay DD5.1 x264-HiFi]
Контейнер: MKV
Видео: MPEG-4 AVC / 20,5 Mbps / 1920x1038 / 23,976 fps / 1,85:1 / High Profile 4.1
Аудио 1: Russian AC3 / 5.1 / 48 kHz / 448 kbps / 16 bits |MVO, R5|
Аудио 2: Russian DTS / 5.1 / 48 kHz / 1509 kbps / 24 bits |Doctor_Joker|
Аудио 3: English DTS / 5.1 / 48 kHz / 1509 kbps / 24 bits |original|
Формат субтитров: softsub [SRT]

MediaInfo
Общее
Уникальный идентификатор                 : 225575523625593970409870289248089945720 (0xA9B443FC3534C9619CFA5574DE423678)
Полное имя                               : G:\HD\Побудь в моей шкуре.2013.BDRip.(1080p).mkv
Формат                                   : Matroska
Версия формата                           : Version 4 / Version 2
Размер файла                             : 18,1 Гбайт
Продолжительность                        : 1 ч. 47 м.
Общий поток                              : 24,0 Мбит/сек
Дата кодирования                         : UTC 2015-02-04 18:59:51
Программа кодирования                    : mkvmerge v7.5.0 ('Glass Culture') 64bit built on Jan  4 2015 16:48:44
Библиотека кодирования                   : libebml v1.3.1 + libmatroska v1.4.2
Attachements                             : poster.jpg
Видео
Идентификатор                            : 1
Формат                                   : AVC
Формат/Информация                        : Advanced Video Codec
Профиль формата                          : High@L4.1
Параметр CABAC формата                   : Да
Параметр ReFrames формата                : 4 кадра
Идентификатор кодека                     : V_MPEG4/ISO/AVC
Продолжительность                        : 1 ч. 47 м.
Битрейт                                  : 20,5 Мбит/сек
Ширина                                   : 1920 пикселей
Высота                                   : 1038 пикселей
Соотношение сторон                       : 1,85:1
Режим частоты кадров                     : Постоянный
Частота кадров                           : 23,976 кадра/сек
Цветовое пространство                    : YUV
Субдискретизация насыщенности            : 4:2:0
Битовая глубина                          : 8 бит
Тип развёртки                            : Прогрессивная
Бит/(Пиксели*Кадры)                      : 0.429
Размер потока                            : 15,1 Гбайт (84%)
Заголовок                                : Under the Skin 2013 Hybrid 1080p BluRay DD5.1 x264-HiFi
Библиотека кодирования                   : x264 core 142 r2 ea0ca51
Настройки программы                      : cabac=1 / ref=4 / deblock=1:-3:-3 / analyse=0x3:0x113 / me=umh / subme=10 / psy=1 / psy_rd=1.05:0.00 / mixed_ref=1 / me_range=32 / chroma_me=1 / trellis=2 / 8x8dct=1 / cqm=0 / deadzone=21,11 / fast_pskip=0 / chroma_qp_offset=-2 / threads=12 / lookahead_threads=2 / sliced_threads=0 / nr=0 / decimate=0 / interlaced=0 / bluray_compat=0 / constrained_intra=0 / bframes=9 / b_pyramid=2 / b_adapt=2 / b_bias=0 / direct=3 / weightb=1 / open_gop=0 / weightp=2 / keyint=250 / keyint_min=23 / scenecut=40 / intra_refresh=0 / rc_lookahead=250 / rc=2pass / mbtree=0 / bitrate=20500 / ratetol=1.0 / qcomp=0.67 / qpmin=0 / qpmax=69 / qpstep=4 / cplxblur=20.0 / qblur=0.5 / vbv_maxrate=62500 / vbv_bufsize=78125 / nal_hrd=none / filler=0 / ip_ratio=1.30 / pb_ratio=1.10 / aq=1:0.75
Default                                  : Да
Forced                                   : Нет
Аудио #1
Идентификатор                            : 2
Формат                                   : AC-3
Формат/Информация                        : Audio Coding 3
Расширение режима                        : CM (complete main)
Параметр Endianness формата              : Big
Идентификатор кодека                     : A_AC3
Продолжительность                        : 1 ч. 47 м.
Вид битрейта                             : Постоянный
Битрейт                                  : 448 Кбит/сек
Каналы                                   : 6 каналов
Расположение каналов                     : Front: L C R, Side: L R, LFE
Частота                                  : 48,0 КГц
Битовая глубина                          : 16 бит
Метод сжатия                             : С потерями
Размер потока                            : 346 Мбайт (2%)
Заголовок                                : MVO, R5
Язык                                     : Russian
Default                                  : Да
Forced                                   : Нет
Аудио #2
Идентификатор                            : 3
Формат                                   : DTS
Формат/Информация                        : Digital Theater Systems
Режим                                    : 16
Параметр Endianness формата              : Big
Идентификатор кодека                     : A_DTS
Продолжительность                        : 1 ч. 47 м.
Вид битрейта                             : Постоянный
Битрейт                                  : 1509 Кбит/сек
Каналы                                   : 6 каналов
Расположение каналов                     : Front: L C R, Side: L R, LFE
Частота                                  : 48,0 КГц
Битовая глубина                          : 24 бит
Метод сжатия                             : С потерями
Размер потока                            : 1,14 Гбайт (6%)
Заголовок                                : Doctor_Joker
Язык                                     : Russian
Default                                  : Нет
Forced                                   : Нет
Аудио #3
Идентификатор                            : 4
Формат                                   : DTS
Формат/Информация                        : Digital Theater Systems
Режим                                    : 16
Параметр Endianness формата              : Big
Идентификатор кодека                     : A_DTS
Продолжительность                        : 1 ч. 47 м.
Вид битрейта                             : Постоянный
Битрейт                                  : 1509 Кбит/сек
Каналы                                   : 6 каналов
Расположение каналов                     : Front: L C R, Side: L R, LFE
Частота                                  : 48,0 КГц
Битовая глубина                          : 24 бит
Метод сжатия                             : С потерями
Размер потока                            : 1,14 Гбайт (6%)
Язык                                     : English
Default                                  : Нет
Forced                                   : Нет
Текст #1
Идентификатор                            : 5
Формат                                   : UTF-8
Идентификатор кодека                     : S_TEXT/UTF8
Идентификатор кодека/Информация          : UTF-8 Plain Text
Заголовок                                : Doctor_Joker
Язык                                     : Russian
Default                                  : Нет
Forced                                   : Нет
Текст #2
Идентификатор                            : 6
Формат                                   : UTF-8
Идентификатор кодека                     : S_TEXT/UTF8
Идентификатор кодека/Информация          : UTF-8 Plain Text
Заголовок                                : notabenoid
Язык                                     : Russian
Default                                  : Нет
Forced                                   : Нет
Текст #3
Идентификатор                            : 7
Формат                                   : UTF-8
Идентификатор кодека                     : S_TEXT/UTF8
Идентификатор кодека/Информация          : UTF-8 Plain Text
Язык                                     : English
Default                                  : Нет
Forced                                   : Нет
Меню
00:00:00.000                             : :Chapter 1
00:08:52.282                             : :Chapter 2
00:22:38.065                             : :Chapter 3
00:29:26.306                             : :Chapter 4
00:41:41.165                             : :Chapter 5
00:49:39.768                             : :Chapter 6
00:59:47.375                             : :Chapter 7
01:07:22.747                             : :Chapter 8
01:18:05.806                             : :Chapter 9
01:26:37.025                             : :Chapter 10
01:33:39.656                             : :Chapter 11
01:42:13.210                             : :Chapter 12
Скриншоты Дополнительно
Цитата:
За дорожку №1 спасибо амаzon.
За дорожку с переводом Алексея Матвеева спасибо будулайроманов с Переулка Переводмана. Работа со звуком: Переводман.
Under the Skin 2013 Hybrid 1080p BluRay DD5.1 x264-HiFi
Info:
Source: Under the Skin 2013 1080p JPN Blu-ray AVC DTS-HD MA 5.1-0xC0
+ Under the Skin 2013 1080p DEU Blu-ray AVC DTS-HD MA 5.1-SharpHD
+ Under the Skin 2013 1080p USA Blu-ray AVC DTS-HD MA 5.1-HDWinG
Source Bitrate: 36733 kbps
Encode Bitrate: 20492 kbps (55.8% of source)
x264 [info]: frame I:819 Avg QP:10.55 size:301863
x264 [info]: frame P:35199 Avg QP:12.11 size:136797
x264 [info]: frame B:119309 Avg QP:12.60 size: 96660
x264 [info]: consecutive B-frames: 3.9% 3.5% 10.1% 10.2% 9.0% 47.3% 5.1% 3.4% 3.2% 4.3%
encoded 155327 frames, 4.03 fps, 20492.36 kb/s
Note: JPN has better detail and color but it has also undergone a censorship treatment with all the
NSFW bits blurred out. Affected scenes were switched out with DEU. USA used for subtitles.
Source vs Encode




Скачать

Скачать торрент!

Как скачивать? · Что такое торрент? · Рейтинг и ограничения

Сайт не распространяет и не хранит электронные версии произведений, а лишь предоставляет доступ к создаваемому пользователями каталогу ссылок на торрент-файлы, которые содержат только списки хеш-сумм

[Профиль] [ЛС]
Показать сообщения:    
Ответить на тему

Текущее время: Сегодня 06:09

Часовой пояс: GMT + 4



Вы не можете начинать темы
Вы не можете отвечать на сообщения
Вы не можете редактировать свои сообщения
Вы не можете удалять свои сообщения
Вы не можете голосовать в опросах
Вы не можете прикреплять файлы к сообщениям
Вы не можете скачивать файлы