Бёрдмэн / Birdman (Алехандро Гонсалес Иньярриту / Alejandro González Iñárritu) [2014, США, Канада, Трагикомедия , BDRip 720p] Dub (Line) + Sub Rus, Eng + Original Eng

Ответить на тему
 
Автор Сообщение

user ®

Стаж: 7 лет 7 месяцев

Сообщений: 20008

Пост Пост: #1 от 11-Фев-2015 15:45

[Цитировать]

Бёрдмэн
Birdman
- Страна: США, Канада
Жанр: Трагикомедия
Год выпуска: 2014
Продолжительность: 01:59:17
Перевод: Профессиональный (дублированный) Line
Cубтитры: Rus, Eng
Оригинальная аудиодорожка: английский
Режиссер: Алехандро Гонсалес Иньярриту / Alejandro González Iñárritu
В ролях:
Майкл Китон | Michael Keaton
Эдвард Нортон | Edward Norton
Наоми Уоттс | Naomi Watts
Эмма Стоун | Emma Stone
Зак Галифианакис | Zach Galifianakis

Андреа Райзборо, Эми Райан, Кенни Чин, Жамаль Гаррисон-Лоу, Джереми Шамос-ОписаниеИстория актёра Риггана Томпсона, известного по роли культового супергероя, который изо всех сил готовится сыграть в бродвейской пьесе. За несколько дней до премьеры он борется со своим эго и пытается восстановить свою карьеру, свою семью и самого себя.-Сэмпл

IMDb: 8.20 (98 298)

Золотой глобус, 2015 год
Победитель (2):
Лучшая мужская роль (комедия или мюзикл) (Майкл Китон)
Лучший сценарий

Качество видео: BDRip 720p Birdman.2014.1080p.BluRay.REMUX.AVC.DTS-HD.MA.5.1-RARBG
Формат видео: MKV
Видео: AVC 6629 Kbps Kbps 1280 x 694 (1.844) 23.976 fps
Аудио: AC-3 192 Kbps 2 channels, 48.0 KHz Dub [Line]
Аудио 2: DTS 1509 Kbps 6 channels, 48.0 KHz Eng
Формат субтитров: softsub (SRT)
MediaInfo | Log
Log
x264 [info]: frame I:701 Avg QP:12.59 size:120482
x264 [info]: frame P:35707 Avg QP:14.76 size: 67444
x264 [info]: frame B:135193 Avg QP:16.56 size: 26529
x264 [info]: consecutive B-frames: 1.1% 2.3% 7.9% 17.0% 17.4% 46.5% 3.0% 0.6% 1.1% 0.5% 0.6% 1.3% 0.9%
x264 [info]: mb I I16..4: 14.6% 72.4% 12.9%
x264 [info]: mb P I16..4: 1.6% 28.9% 1.8% P16..4: 21.0% 27.6% 11.4% 1.9% 0.1% skip: 5.7%
x264 [info]: mb B I16..4: 0.3% 4.1% 0.2% B16..8: 33.6% 25.7% 5.5% direct: 7.5% skip:23.0% L0:43.4% L1:40.8% BI:15.8%
x264 [info]: 8x8 transform intra:88.7% inter:53.5%
x264 [info]: direct mvs spatial:99.7% temporal:0.3%
x264 [info]: coded y,uvDC,uvAC intra: 91.5% 93.6% 87.5% inter: 35.0% 36.3% 17.0%
x264 [info]: i16 v,h,dc,p: 45% 8% 11% 36%
x264 [info]: i8 v,h,dc,ddl,ddr,vr,hd,vl,hu: 10% 8% 16% 9% 12% 11% 11% 11% 13%
x264 [info]: i4 v,h,dc,ddl,ddr,vr,hd,vl,hu: 15% 8% 15% 7% 13% 12% 11% 9% 10%
x264 [info]: i8c dc,h,v,p: 59% 14% 13% 13%
x264 [info]: Weighted P-Frames: Y:4.0% UV:2.4%
x264 [info]: ref P L0: 44.0% 11.1% 19.9% 7.2% 6.4% 3.6% 3.6% 1.9% 2.1% 0.2% 0.0%
x264 [info]: ref B L0: 71.9% 13.2% 5.8% 3.3% 2.7% 1.8% 0.9% 0.3%
x264 [info]: ref B L1: 93.3% 6.7%
x264 [info]: kb/s:6795.08
x264 [total]: encoded 171601 frames, 6.11 fps, 6795.08 kb/s, duration 7:47:55.02
Format : Matroska
Format version : Version 4 / Version 2
File size : 7.08 GiB
Duration : 1h 59mn
Overall bit rate : 8 499 Kbps
Encoded date : UTC 2015-02-10 14:42:44
Writing application : mkvmerge v6.7.0 ('Back to the Ground') 32bit built on Jan 8 2014 15:03:17
Writing library : libebml v1.3.0 + libmatroska v1.4.1
Video
ID : 1
Format : AVC
Format/Info : Advanced Video Codec
Format profile : High@L4.1
Format settings, CABAC : Yes
Format settings, ReFrames : 9 frames
Codec ID : V_MPEG4/ISO/AVC
Duration : 1h 59mn
Bit rate : 6 629 Kbps
Width : 1 280 pixels
Height : 694 pixels
Display aspect ratio : 1.85:1
Frame rate mode : Constant
Frame rate : 23.976 fps
Color space : YUV
Chroma subsampling : 4:2:0
Bit depth : 8 bits
Scan type : Progressive
Bits/(Pixel*Frame) : 0.311
Stream size : 5.52 GiB (78%)
Title : Birdman [2014] ***
Writing library : x264 core 144 r2525kMod 40bb568
Encoding settings : cabac=1 / ref=9 / deblock=1:-3:-2 / analyse=0x3:0x133 / me=umh / subme=11 / psy=1 / fade_compensate=0.00 / psy_rd=1.00:0.05 / mixed_ref=1 / me_range=32 / chroma_me=1 / trellis=2 / 8x8dct=1 / cqm=0 / deadzone=21,11 / fast_pskip=0 / chroma_qp_offset=-3 / threads=12 / lookahead_threads=3 / sliced_threads=0 / nr=0 / decimate=1 / interlaced=0 / bluray_compat=0 / constrained_intra=0 / fgo=0 / bframes=12 / b_pyramid=2 / b_adapt=2 / b_bias=0 / direct=3 / weightb=1 / open_gop=0 / weightp=2 / keyint=250 / keyint_min=23 / scenecut=40 / intra_refresh=0 / rc_lookahead=80 / rc=crf / mbtree=0 / crf=16.8000 / qcomp=0.60 / qpmin=0 / qpmax=69 / qpstep=4 / vbv_maxrate=50000 / vbv_bufsize=62500 / crf_max=0.0 / nal_hrd=none / filler=0 / ip_ratio=1.40 / pb_ratio=1.30 / aq=3:0.90
Language : English
Default : Yes
Forced : No
Audio #1
ID : 2
Format : AC-3
Format/Info : Audio Coding 3
Mode extension : CM (complete main)
Format settings, Endianness : Big
Codec ID : A_AC3
Duration : 1h 59mn
Bit rate mode : Constant
Bit rate : 192 Kbps
Channel(s) : 2 channels
Channel positions : Front: L R
Sampling rate : 48.0 KHz
Bit depth : 16 bits
Compression mode : Lossy
Stream size : 164 MiB (2%)
Title : Line
Language : Russian
Default : Yes
Forced : No
Audio #2
ID : 3
Format : DTS
Format/Info : Digital Theater Systems
Mode : 16
Format settings, Endianness : Big
Codec ID : A_DTS
Duration : 1h 59mn
Bit rate mode : Constant
Bit rate : 1 509 Kbps
Channel(s) : 6 channels
Channel positions : Front: L C R, Side: L R, LFE
Sampling rate : 48.0 KHz
Bit depth : 24 bits
Compression mode : Lossy
Stream size : 1.26 GiB (18%)
Title : Original
Language : English
Default : No
Forced : No
Text #1
ID : 4
Format : UTF-8
Codec ID : S_TEXT/UTF8
Codec ID/Info : UTF-8 Plain Text
Title : Full
Language : Russian
Default : No
Forced : No
Text #2
ID : 5
Format : UTF-8
Codec ID : S_TEXT/UTF8
Codec ID/Info : UTF-8 Plain Text
Title : Full
Language : English
Default : No
Forced : No
Menu
00:00:00.000 : en:Chapter 01
00:03:27.000 : en:Chapter 02
00:07:32.000 : en:Chapter 03
00:09:07.000 : en:Chapter 04
00:12:37.000 : en:Chapter 05
00:16:51.000 : en:Chapter 06
00:19:05.000 : en:Chapter 07
00:20:19.000 : en:Chapter 08
00:25:18.000 : en:Chapter 09
00:31:42.000 : en:Chapter 10
00:36:06.000 : en:Chapter 11
00:37:09.000 : en:Chapter 12
00:42:06.000 : en:Chapter 13
00:48:45.000 : en:Chapter 14
00:53:26.000 : en:Chapter 15
00:58:26.000 : en:Chapter 16
01:03:12.000 : en:Chapter 17
01:08:24.000 : en:Chapter 18
01:12:37.000 : en:Chapter 19
01:16:55.000 : en:Chapter 20
01:20:39.000 : en:Chapter 21
01:25:07.000 : en:Chapter 22
01:27:58.000 : en:Chapter 23
01:33:15.000 : en:Chapter 24
01:39:08.000 : en:Chapter 25
01:43:03.000 : en:Chapter 26
01:46:36.000 : en:Chapter 27
01:52:09.000 : en:Chapter 28
Скриншоты | Rip vs Source
Скачать

Скачать торрент!

Как скачивать? · Что такое торрент? · Рейтинг и ограничения

Сайт не распространяет и не хранит электронные версии произведений, а лишь предоставляет доступ к создаваемому пользователями каталогу ссылок на торрент-файлы, которые содержат только списки хеш-сумм

[Профиль] [ЛС]
Показать сообщения:    
Ответить на тему

Текущее время: Сегодня 08:04

Часовой пояс: GMT + 4



Вы не можете начинать темы
Вы не можете отвечать на сообщения
Вы не можете редактировать свои сообщения
Вы не можете удалять свои сообщения
Вы не можете голосовать в опросах
Вы не можете прикреплять файлы к сообщениям
Вы не можете скачивать файлы