Мундасупатти / Mundaasupatti (Рам / Ram) [2014, Индия, Комедия, BDRip] sub

Ответить на тему
 
Автор Сообщение

user ®

Стаж: 12 лет

Сообщений: 15092

Пост Пост: #1 от 11-Фев-2015 11:51

[Цитировать]

Мундасупатти / Mundaasupatti Страна: Индия
Жанр: Комедия
Год выпуска: 2014
Продолжительность: 02:25:20
Перевод: Субтитры
Cубтитры: русские
Релиз-группа: Deepavali
Перевод субтитров: Sima Kivi
Оригинальная аудиодорожка: Тамильский
Режиссер: Рам / Ram
В ролях: Вишну Вишал, Нандита, Кали Венкат
Описание: Добавлю попозже

Качество видео: BDRip
Формат видео: AVI
Видео: Xvid, 720x304, 23.976 fps, 1029 kbps
Аудио: AC3, 44.1 kHz, 6 channels, 448 kbps
Формат субтитров: hardsub (неотключаемые)
MediaInfo
General
Complete name : I:\кино - Индия\Mundasupatti.2014.BDRip.Xvid.Deepavali.avi
Format : AVI
Format/Info : Audio Video Interleave
File size : 1.47 GiB
Duration : 2h 25mn
Overall bit rate : 1 443 Kbps
Writing application : VirtualDubMod 1.5.10.3 | www.virtualdub-fr.org || (build 2550/release)
Writing library : VirtualDubMod build 2550/release
Video
ID : 0
Format : MPEG-4 Visual
Format profile : Advanced Simple@L5
Format settings, BVOP : Yes
Format settings, QPel : No
Format settings, GMC : No warppoints
Format settings, Matrix : Default (MPEG)
Codec ID : DX50
Codec ID/Hint : DivX 5
Duration : 2h 25mn
Bit rate : 986 Kbps
Width : 720 pixels
Height : 304 pixels
Display aspect ratio : 2.35:1
Frame rate : 23.976 fps
Color space : YUV
Chroma subsampling : 4:2:0
Bit depth : 8 bits
Scan type : Progressive
Bits/(Pixel*Frame) : 0.188
Stream size : 1.00 GiB (68%)
Writing library : XviD 1.2.1 (UTC 2008-12-04)
Audio
ID : 1
Format : AC-3
Format/Info : Audio Coding 3
Mode extension : CM (complete main)
Codec ID : 2000
Duration : 2h 25mn
Bit rate mode : Constant
Bit rate : 448 Kbps
Channel(s) : 6 channels
Channel positions : Front: L C R, Side: L R, LFE
Sampling rate : 44.1 KHz
Stream size : 466 MiB (31%)
Alignment : Split accross interleaves
Interleave, duration : 42 ms (1.00 video frame)
Interleave, preload duration : 500 ms
Скриншот c названием фильма Скриншоты
Скачать

Скачать торрент! Мундасупатти / Mundaasupatti (Рам / Ram) [2014, Индия, Комедия, BDRip] sub

Как скачивать? · Что такое торрент? · Рейтинг и ограничения

Сайт не распространяет и не хранит электронные версии произведений, а лишь предоставляет доступ к создаваемому пользователями каталогу ссылок на торрент-файлы, которые содержат только списки хеш-сумм

[Профиль] [ЛС]
Показать сообщения:    
Ответить на тему

Текущее время: Сегодня 15:22

Часовой пояс: GMT + 4



Вы не можете начинать темы
Вы не можете отвечать на сообщения
Вы не можете редактировать свои сообщения
Вы не можете удалять свои сообщения
Вы не можете голосовать в опросах
Вы не можете прикреплять файлы к сообщениям
Вы не можете скачивать файлы