Побудь в моей шкуре / Under the Skin (Джонатан Глейзер / Jonathan Glazer) [2013, Великобритания, США, Швейцария, фантастика, триллер, драма, BDRip 720p] MVO (R5) + VO (Doctor Joker) + Original (Eng) + Sub (Rus, Eng)

Ответить на тему
 
Автор Сообщение

user ®

Стаж: 7 лет 7 месяцев

Сообщений: 20008

Пост Пост: #1 от 11-Фев-2015 00:48

[Цитировать]

Побудь в моей шкуре / Under the Skin

-
-Страна: Великобритания, США, Швейцария
Студия: British Film Institute (BFI), Creative Scotland, Film4, FilmNation Entertainment
Жанр: фантастика, триллер, драма
Год выпуска: 2013
Продолжительность: 01:47:58--Перевод 1: Профессиональный (многоголосый закадровый) R5
Перевод 2: Одноголосый закадровый Doctor_Joker
Cубтитры: русские (Doctor_Joker, notabenoid), английские
Оригинальная аудиодорожка: английский--Режиссер: Джонатан Глейзер / Jonathan Glazer
В ролях: Скарлетт Йоханссон, Джереми МакУильямс, Линси Тейлор Маккэй, Даги МакКоннелл, Кевин МакАлинден, Д. Мид, Эндрю Горман, Джо Шула, Криштоф Гадек, Рой Армстронг--Описание: Таинственная соблазнительница охотится на жителей Шотландии…--imdb | kinopoisk | Сэмпл--Тип релиза: BDRip 720p [Under the Skin 2013 Hybrid 720p BluRay DD5.1 x264-HiFi]
Контейнер: MKV
Видео: MPEG-4 AVC / 9000 kbps / 1280x692 / 23,976 fps / 1,85:1 / High Profile 4.1
Аудио 1: Russian AC3 / 5.1 / 48 kHz / 448 kbps / 16 bits |MVO, R5|
Аудио 2: Russian AC3 / 5.1 / 48 kHz / 640 kbps / 16 bits |Doctor_Joker|
Аудио 3: English AC3 / 5.1 / 48 kHz / 640 kbps / 16 bits |original|
Формат субтитров: softsub [SRT]

MediaInfo
Общее
Уникальный идентификатор                 : 247180281050383562321203306434395401864 (0xB9F530C431EDD0638BB822C909546E88)
Полное имя                               : G:\HD\Побудь в моей шкуре.2013.BDRip.(720p).mkv
Формат                                   : Matroska
Версия формата                           : Version 4 / Version 2
Размер файла                             : 8,08 Гбайт
Продолжительность                        : 1 ч. 47 м.
Общий поток                              : 10,7 Мбит/сек
Дата кодирования                         : UTC 2015-02-04 19:33:18
Программа кодирования                    : mkvmerge v7.5.0 ('Glass Culture') 64bit built on Jan  4 2015 16:48:44
Библиотека кодирования                   : libebml v1.3.1 + libmatroska v1.4.2
Attachements                             : poster.jpg
Видео
Идентификатор                            : 1
Формат                                   : AVC
Формат/Информация                        : Advanced Video Codec
Профиль формата                          : High@L4.1
Параметр CABAC формата                   : Да
Параметр ReFrames формата                : 9 кадров
Идентификатор кодека                     : V_MPEG4/ISO/AVC
Продолжительность                        : 1 ч. 47 м.
Битрейт                                  : 9000 Кбит/сек
Ширина                                   : 1280 пикселей
Высота                                   : 692 пикселя
Соотношение сторон                       : 1,85:1
Режим частоты кадров                     : Постоянный
Частота кадров                           : 23,976 кадра/сек
Цветовое пространство                    : YUV
Субдискретизация насыщенности            : 4:2:0
Битовая глубина                          : 8 бит
Тип развёртки                            : Прогрессивная
Бит/(Пиксели*Кадры)                      : 0.424
Размер потока                            : 6,61 Гбайт (82%)
Заголовок                                : Under the Skin 2013 Hybrid 720p BluRay DD5.1 x264-HiFi
Библиотека кодирования                   : x264 core 142 r2 ea0ca51
Настройки программы                      : cabac=1 / ref=9 / deblock=1:-3:-3 / analyse=0x3:0x113 / me=umh / subme=10 / psy=1 / psy_rd=1.00:0.00 / mixed_ref=1 / me_range=32 / chroma_me=1 / trellis=2 / 8x8dct=1 / cqm=0 / deadzone=21,11 / fast_pskip=0 / chroma_qp_offset=-2 / threads=12 / lookahead_threads=3 / sliced_threads=0 / nr=0 / decimate=0 / interlaced=0 / bluray_compat=0 / constrained_intra=0 / bframes=13 / b_pyramid=2 / b_adapt=2 / b_bias=0 / direct=3 / weightb=1 / open_gop=0 / weightp=2 / keyint=250 / keyint_min=23 / scenecut=40 / intra_refresh=0 / rc_lookahead=250 / rc=2pass / mbtree=0 / bitrate=9000 / ratetol=1.0 / qcomp=0.70 / qpmin=0 / qpmax=69 / qpstep=4 / cplxblur=20.0 / qblur=0.5 / vbv_maxrate=62500 / vbv_bufsize=78125 / nal_hrd=none / filler=0 / ip_ratio=1.30 / pb_ratio=1.10 / aq=1:0.78
Default                                  : Да
Forced                                   : Нет
Аудио #1
Идентификатор                            : 2
Формат                                   : AC-3
Формат/Информация                        : Audio Coding 3
Расширение режима                        : CM (complete main)
Параметр Endianness формата              : Big
Идентификатор кодека                     : A_AC3
Продолжительность                        : 1 ч. 47 м.
Вид битрейта                             : Постоянный
Битрейт                                  : 448 Кбит/сек
Каналы                                   : 6 каналов
Расположение каналов                     : Front: L C R, Side: L R, LFE
Частота                                  : 48,0 КГц
Битовая глубина                          : 16 бит
Метод сжатия                             : С потерями
Размер потока                            : 346 Мбайт (4%)
Заголовок                                : MVO, R5
Язык                                     : Russian
Default                                  : Да
Forced                                   : Нет
Аудио #2
Идентификатор                            : 3
Формат                                   : AC-3
Формат/Информация                        : Audio Coding 3
Расширение режима                        : CM (complete main)
Параметр Endianness формата              : Big
Идентификатор кодека                     : A_AC3
Продолжительность                        : 1 ч. 47 м.
Вид битрейта                             : Постоянный
Битрейт                                  : 640 Кбит/сек
Каналы                                   : 6 каналов
Расположение каналов                     : Front: L C R, Side: L R, LFE
Частота                                  : 48,0 КГц
Битовая глубина                          : 16 бит
Метод сжатия                             : С потерями
Размер потока                            : 494 Мбайт (6%)
Заголовок                                : Doctor_Joker
Язык                                     : Russian
Default                                  : Нет
Forced                                   : Нет
Аудио #3
Идентификатор                            : 4
Формат                                   : AC-3
Формат/Информация                        : Audio Coding 3
Расширение режима                        : CM (complete main)
Параметр Endianness формата              : Big
Идентификатор кодека                     : A_AC3
Продолжительность                        : 1 ч. 47 м.
Вид битрейта                             : Постоянный
Битрейт                                  : 640 Кбит/сек
Каналы                                   : 6 каналов
Расположение каналов                     : Front: L C R, Side: L R, LFE
Частота                                  : 48,0 КГц
Битовая глубина                          : 16 бит
Метод сжатия                             : С потерями
Размер потока                            : 494 Мбайт (6%)
Язык                                     : English
Default                                  : Нет
Forced                                   : Нет
Текст #1
Идентификатор                            : 5
Формат                                   : UTF-8
Идентификатор кодека                     : S_TEXT/UTF8
Идентификатор кодека/Информация          : UTF-8 Plain Text
Заголовок                                : Doctor_Joker
Язык                                     : Russian
Default                                  : Нет
Forced                                   : Нет
Текст #2
Идентификатор                            : 6
Формат                                   : UTF-8
Идентификатор кодека                     : S_TEXT/UTF8
Идентификатор кодека/Информация          : UTF-8 Plain Text
Заголовок                                : notabenoid
Язык                                     : Russian
Default                                  : Нет
Forced                                   : Нет
Текст #3
Идентификатор                            : 7
Формат                                   : UTF-8
Идентификатор кодека                     : S_TEXT/UTF8
Идентификатор кодека/Информация          : UTF-8 Plain Text
Язык                                     : English
Default                                  : Нет
Forced                                   : Нет
Меню
00:00:00.000                             : :Chapter 1
00:08:52.282                             : :Chapter 2
00:22:38.065                             : :Chapter 3
00:29:26.306                             : :Chapter 4
00:41:41.165                             : :Chapter 5
00:49:39.768                             : :Chapter 6
00:59:47.375                             : :Chapter 7
01:07:22.747                             : :Chapter 8
01:18:05.806                             : :Chapter 9
01:26:37.025                             : :Chapter 10
01:33:39.656                             : :Chapter 11
01:42:13.210                             : :Chapter 12
Скриншоты Дополнительно
Цитата:
За дорожку №1 спасибо амаzon.
За дорожку с переводом Алексея Матвеева спасибо будулайроманов с Переулка Переводмана. Работа со звуком: Переводман.
Under the Skin 2013 Hybrid 720p BluRay DD5.1 x264-HiFi
Encoder notes:
Source: Under the Skin 2013 1080p JPN Blu-ray AVC DTS-HD MA 5.1-0xC0
+ Under the Skin 2013 1080p DEU Blu-ray AVC DTS-HD MA 5.1-SharpHD
+ Under the Skin 2013 1080p USA Blu-ray AVC DTS-HD MA 5.1-HDWinG
Note: JPN has better detail and color but it has also undergone
a censorship treatment with all the NSFW bits blurred out.
I'm switching the affected scenes out with DEU. USA used for subtitles.
Encode info:
Details: 1280 x 692px (1.85:1 - OAR 1:1)
Source Bitrate: 36733 kbps
Encode Bitrate: 8981 kbps (24.5% of source)
x264 [info]: frame I:848 Avg QP: 9.64 size:157456
x264 [info]: frame P:30326 Avg QP:11.99 size: 68416
x264 [info]: frame B:124153 Avg QP:11.80 size: 40791
x264 [info]: consecutive B-frames: 2.0% 1.8% 9.9% 12.6% 8.3% 37.2% 5.0% 4.2% 2.6% 1.2% 1.9% 7.8% 2.3% 3.1%
encoded 155327 frames, 6.96 fps, 8980.70 kb/s
Source vs Encode




Скачать

Скачать торрент!

Как скачивать? · Что такое торрент? · Рейтинг и ограничения

Сайт не распространяет и не хранит электронные версии произведений, а лишь предоставляет доступ к создаваемому пользователями каталогу ссылок на торрент-файлы, которые содержат только списки хеш-сумм

[Профиль] [ЛС]
Показать сообщения:    
Ответить на тему

Текущее время: Сегодня 17:45

Часовой пояс: GMT + 4



Вы не можете начинать темы
Вы не можете отвечать на сообщения
Вы не можете редактировать свои сообщения
Вы не можете удалять свои сообщения
Вы не можете голосовать в опросах
Вы не можете прикреплять файлы к сообщениям
Вы не можете скачивать файлы