Исчезновение / VANish (Брайан Бокбрейдер / Bryan Bockbrader) [2015, США, боевик, криминал, триллер, ужасы, BDRip-AVC] VO + Original (Eng) + Sub (Eng)

Ответить на тему
 
Автор Сообщение

user ®

Стаж: 7 лет 7 месяцев

Сообщений: 20008

Пост Пост: #1 от 10-Фев-2015 20:36

[Цитировать]

Исчезновение / VANish
Страна: США
Жанр: боевик, криминал, триллер, ужасы
Год выпуска: 2015
Продолжительность: 01:19:17
Перевод: Одноголосый закадровый. Озвучка - RAIM, перевод - Сергей Гиллан
Оригинальная аудиодорожка: английский
Cубтитры: английские (полные)-Режиссер: Брайан Бокбрейдер / Bryan Bockbrader
В ролях: Майра Уолш (Emma), Остин Абке (Jack), Брайан Бокбрейдер (Max), Адам Гатри (Shane), Тони Тодд (Officer Darrow), Дэнни Трехо (Carlos), Джо Дэвис (Ed), Эсперанса Диас (Isabella), Денис Дорадо (Jasmine), Луис Девесе (Cartel Hitman #1), Майкл Мендоза (Cartel Hitman #2), Дэн Брункер (Baseball Bat Neighbor)-Описание: Трое отмороженных парней похищают девушку и требуют у её отца выкуп в несколько миллионов долларов. Правда, есть одна пикантная подробность: отец девушки - мексиканский наркобарон. Такие люди не терпят, когда им угрожают. Да и в отношении дочери, как нельзя кстати, верна поговорка: яблоко от яблони недалеко падает...-СЭМПЛ
Тип релиза: BDRip-AVC
Исходник: VANish.2015.BDRemux.1080p.NovaLan
Контейнер: MKV
Видео: 1088x456p / 23.976 fps / 2.40:1 / High Profile 4.1 / AVC / ~ 2810 Kbps
Аудио 1: AC3 / 448 Kbps / 5.1 / 48 kHz / Russian / VO - RAIM
Аудио 2: AC3 / 448 Kbps / 5.1 / 48 kHz / English / original
Формат субтитров: softsub (SRT)-IMDB * КиноПоиск
Внимание: присутствует ненормативная лексика!
MediaInfo / x264 log
General
Complete name : VANish.2015.BDRip-AVC.VO.mkv
Format : Matroska
Format version : Version 2
File size : 2.05 GiB
Duration : 1h 19mn
Overall bit rate : 3 708 Kbps
Encoded date : UTC 2015-02-10 11:07:28
Writing application : mkvmerge v5.8.0 ('No Sleep / Pillow') built on Sep 2 2012 15:37:04
Writing library : libebml v1.2.3 + libmatroska v1.3.0
Video
ID : 1
Format : AVC
Format/Info : Advanced Video Codec
Format profile : High@L4.1
Format settings, CABAC : Yes
Format settings, ReFrames : 12 frames
Codec ID : V_MPEG4/ISO/AVC
Duration : 1h 19mn
Bit rate : 2 810 Kbps
Width : 1 088 pixels
Height : 456 pixels
Display aspect ratio : 2.40:1
Frame rate mode : Constant
Frame rate : 23.976 fps
Color space : YUV
Chroma subsampling : 4:2:0
Bit depth : 8 bits
Scan type : Progressive
Bits/(Pixel*Frame) : 0.236
Stream size : 1.52 GiB (74%)
Title : VANish 2015
Writing library : x264 core 144 r2525 40bb568
Encoding settings : cabac=1 / ref=12 / deblock=1:-3:-3 / analyse=0x3:0x113 / me=umh / subme=11 / psy=1 / psy_rd=1.05:0.00 / mixed_ref=1 / me_range=24 / chroma_me=1 / trellis=2 / 8x8dct=1 / cqm=0 / deadzone=21,11 / fast_pskip=1 / chroma_qp_offset=-2 / threads=6 / lookahead_threads=1 / sliced_threads=0 / nr=0 / decimate=1 / interlaced=0 / bluray_compat=0 / constrained_intra=0 / bframes=8 / b_pyramid=2 / b_adapt=2 / b_bias=0 / direct=3 / weightb=1 / open_gop=0 / weightp=2 / keyint=240 / keyint_min=23 / scenecut=40 / intra_refresh=0 / rc=2pass / mbtree=0 / bitrate=2810 / ratetol=1.0 / qcomp=0.60 / qpmin=0 / qpmax=69 / qpstep=4 / cplxblur=20.0 / qblur=0.5 / ip_ratio=1.40 / pb_ratio=1.30 / aq=2:0.90
Default : Yes
Forced : No
Audio #1
ID : 2
Format : AC-3
Format/Info : Audio Coding 3
Mode extension : CM (complete main)
Format settings, Endianness : Big
Codec ID : A_AC3
Duration : 1h 19mn
Bit rate mode : Constant
Bit rate : 448 Kbps
Channel(s) : 6 channels
Channel positions : Front: L C R, Side: L R, LFE
Sampling rate : 48.0 KHz
Bit depth : 16 bits
Compression mode : Lossy
Stream size : 254 MiB (12%)
Title : RUS AC3 448 Kbps 6ch VO RAIM
Language : Russian
Default : Yes
Forced : No
Audio #2
ID : 3
Format : AC-3
Format/Info : Audio Coding 3
Mode extension : CM (complete main)
Format settings, Endianness : Big
Codec ID : A_AC3
Duration : 1h 19mn
Bit rate mode : Constant
Bit rate : 448 Kbps
Channel(s) : 6 channels
Channel positions : Front: L C R, Side: L R, LFE
Sampling rate : 48.0 KHz
Bit depth : 16 bits
Compression mode : Lossy
Stream size : 254 MiB (12%)
Title : ENG AC3 448 Kbps 6ch original
Language : English
Default : No
Forced : No
Text
ID : 4
Format : UTF-8
Codec ID : S_TEXT/UTF8
Codec ID/Info : UTF-8 Plain Text
Title : ENG Sub Full
Language : English
Default : No
Forced : No
Menu
00:00:00.000 : :Chapter 01
00:02:54.174 : :Chapter 02
00:07:51.471 : :Chapter 03
00:11:52.711 : :Chapter 04
00:16:47.005 : :Chapter 05
00:20:36.234 : :Chapter 06
00:26:41.599 : :Chapter 07
00:30:24.823 : :Chapter 08
00:37:49.266 : :Chapter 09
00:46:38.795 : :Chapter 10
00:52:12.128 : :Chapter 11
00:58:04.481 : :Chapter 12
01:04:35.871 : :Chapter 13
01:09:24.785 : :Chapter 14
01:12:46.362 : :Chapter 15-x264 [info]: frame I:1232 Avg QP:16.15 size: 74516
x264 [info]: frame P:25144 Avg QP:19.03 size: 27781
x264 [info]: frame B:87685 Avg QP:21.35 size: 10041
x264 [info]: consecutive B-frames: 2.9% 2.8% 7.7% 18.5% 20.7% 37.0% 5.6% 1.7% 3.2%
Скриншот с названием Скриншоты
Скачать

Скачать торрент!

Как скачивать? · Что такое торрент? · Рейтинг и ограничения

Сайт не распространяет и не хранит электронные версии произведений, а лишь предоставляет доступ к создаваемому пользователями каталогу ссылок на торрент-файлы, которые содержат только списки хеш-сумм

[Профиль] [ЛС]
Показать сообщения:    
Ответить на тему

Текущее время: Сегодня 17:45

Часовой пояс: GMT + 4



Вы не можете начинать темы
Вы не можете отвечать на сообщения
Вы не можете редактировать свои сообщения
Вы не можете удалять свои сообщения
Вы не можете голосовать в опросах
Вы не можете прикреплять файлы к сообщениям
Вы не можете скачивать файлы