Револьвер Рани / Revolver Rani (Сай Кабир / Sai Kabir) [2014, Индия, Боевик, драма, мелодрама, комедия, криминал, DVDRip] DVO + Sub Rus (на песни)

Ответить на тему
 
Автор Сообщение

user ®

Стаж: 13 лет

Сообщений: 15070

Пост Пост: #1 от 10-Фев-2015 12:21

[Цитировать]

Револьвер Рани / Revolver Rani- Страна: Индия
Жанр: Боевик, драма, мелодрама, комедия, криминал
Год выпуска: 2014
Продолжительность: 02:11:11-Перевод: Любительский (двухголосый закадровый) - DeadSno & den904
Cубтитры: русские (на песни)--Режиссер: Сай Кабир / Sai Kabir-В ролях: Кангана Ранаут, Вир Дас, Закир Хуссэйн, Кумуд Мишра, Пиюш Мишра, Панкадж Сарасват--Описание: На враждебной земле Чамбал, которая является родиной повстанцев, политиков, оружий и смертей, ты должен выжить с оружием в руках, либо умереть от него. У Алки Сингх в этом городе нет друзей, есть только маленькая партия, да впридачу со смертельными врагами, которые готовы ей в любую минуту пустить пулю в лоб.Револьвер Рани является необычной сатирической историей, которая разворачивается на фоне политики. Алка Сингх является лидером политической партии, да ещё и безумно влюблена в восходящую звезду Болливуда, Рохана Капура. Выборы в Гвалиоре ожесточаются с появлением конкурента Алки, партии Томар, которая жаждет власти и хочет убрать с поле боя Алку. Но наша героиня не так проста, как кажется на первый взгляд...-- --Релиз-группа:
Творческая озвучка: DeadSno & den904 (спасибо!)
Перевод и редакция: Honey&Haseena (спасибо!)
Озвучено по заказу: Town City--Качество видео: DVDRip
Формат видео: MKV-Видео: 720х304 (2.35:1), 23.976 fps, AVC, ~1699 kbps avg, 0.32 bit/pixel
Аудио: 48 kHz, AC3, 2 ch, ~192 kbps
Субтитры: SRT (отдельным файлом)
Скачать субтитры-MI
Общее
Уникальный идентификатор : 248811208400775034164937188124759063511 (0xBB2F4BB169241E3BB7654010044A7BD7)
Полное имя : F:\РевольверРани.mkv
Формат : Matroska
Версия формата : Version 4 / Version 2
Размер файла : 1,72 Гбайт
Продолжительность : 2 ч. 11 м.
Общий поток : 1875 Кбит/сек
Дата кодирования : UTC 2015-02-08 13:42:26
Программа кодирования : mkvmerge v7.2.0 ('On Every Street') 64bit built on Sep 13 2014 15:52:10
Библиотека кодирования : libebml v1.3.0 + libmatroska v1.4.1
DURATION : 02:11:01.216000000
NUMBER_OF_FRAMES : 245663
NUMBER_OF_BYTES : 188669184
_STATISTICS_WRITING_APP : mkvmerge v7.2.0 ('On Every Street') 64bit built on Sep 13 2014 15:52:10
_STATISTICS_WRITING_DATE_UTC : 2015-02-08 13:42:26
_STATISTICS_TAGS : BPS DURATION NUMBER_OF_FRAMES NUMBER_OF_BYTES
Видео
Идентификатор : 1
Формат : AVC
Формат/Информация : Advanced Video Codec
Профиль формата : High@L3.0
Параметр CABAC формата : Да
Параметр ReFrames формата : 4 кадра
Идентификатор кодека : V_MPEG4/ISO/AVC
Продолжительность : 2 ч. 11 м.
Битрейт : 1699 Кбит/сек
Ширина : 720 пикселей
Высота : 304 пикселя
Соотношение сторон : 2,35:1
Режим частоты кадров : Постоянный
Частота кадров : 23,976 кадра/сек
Цветовое пространство : YUV
Субдискретизация насыщенности : 4:2:0
Битовая глубина : 8 бит
Тип развёртки : Прогрессивная
Бит/(Пиксели*Кадры) : 0.324
Размер потока : 1,51 Гбайт (88%)
Библиотека кодирования : x264 core 138 r2358 9e941d1
Настройки программы : cabac=1 / ref=3 / deblock=1:0:0 / analyse=0x3:0x113 / me=hex / subme=7 / psy=1 / psy_rd=1.00:0.00 / mixed_ref=1 / me_range=16 / chroma_me=1 / trellis=1 / 8x8dct=1 / cqm=0 / deadzone=21,11 / fast_pskip=1 / chroma_qp_offset=-2 / threads=6 / lookahead_threads=1 / sliced_threads=0 / nr=0 / decimate=1 / interlaced=0 / bluray_compat=0 / constrained_intra=0 / bframes=3 / b_pyramid=2 / b_adapt=2 / b_bias=0 / direct=1 / weightb=1 / open_gop=0 / weightp=2 / keyint=240 / keyint_min=23 / scenecut=40 / intra_refresh=0 / rc_lookahead=40 / rc=abr / mbtree=1 / bitrate=1699 / ratetol=1.0 / qcomp=0.60 / qpmin=0 / qpmax=51 / qpstep=4 / ip_ratio=1.40 / aq=1:1.00
Язык : English
Default : Да
Forced : Нет
DURATION : 02:11:01.437000000
NUMBER_OF_FRAMES : 188486
NUMBER_OF_BYTES : 1651779734
_STATISTICS_WRITING_APP : mkvmerge v7.2.0 ('On Every Street') 64bit built on Sep 13 2014 15:52:10
_STATISTICS_WRITING_DATE_UTC : 2015-02-08 13:42:26
_STATISTICS_TAGS : BPS DURATION NUMBER_OF_FRAMES NUMBER_OF_BYTES
Аудио
Идентификатор : 3
Формат : AC-3
Формат/Информация : Audio Coding 3
Расширение режима : CM (complete main)
Параметр Endianness формата : Big
Идентификатор кодека : A_AC3
Продолжительность : 2 ч. 11 м.
Вид битрейта : Постоянный
Битрейт : 192 Кбит/сек
Каналы : 2 канала
Расположение каналов : Front: L R
Частота : 48,0 КГц
Битовая глубина : 16 бит
Метод сжатия : С потерями
Размер потока : 180 Мбайт (10%)
Default : Да
Forced : Нет
Текст
Идентификатор : 2
Формат : UTF-8
Идентификатор кодека : S_TEXT/UTF8
Идентификатор кодека/Информация : UTF-8 Plain Text
Default : Да
Forced : Нет

-
Скриншот c названием фильма
-
Скриншоты -
Скачать

Скачать торрент! Револьвер Рани / Revolver Rani (Сай Кабир / Sai Kabir) [2014, Индия, Боевик, драма, мелодрама, комедия, криминал, DVDRip] DVO + Sub Rus (на песни)

Как скачивать? · Что такое торрент? · Рейтинг и ограничения

Сайт не распространяет и не хранит электронные версии произведений, а лишь предоставляет доступ к создаваемому пользователями каталогу ссылок на торрент-файлы, которые содержат только списки хеш-сумм

[Профиль] [ЛС]
Показать сообщения:    
Ответить на тему

Текущее время: Сегодня 16:29

Часовой пояс: GMT + 4



Вы не можете начинать темы
Вы не можете отвечать на сообщения
Вы не можете редактировать свои сообщения
Вы не можете удалять свои сообщения
Вы не можете голосовать в опросах
Вы не можете прикреплять файлы к сообщениям
Вы не можете скачивать файлы