Ярость / Fury (Дэвид Эйр / David Ayer) [2014, Великобритания, США, Китай, Боевик, драма, военный, BDRip 1080p] Dub (Rus, Ukr) + VO (А.Матвеев) + Sub Rus, Ukr, Eng + Original Eng

Ответить на тему
 
Автор Сообщение

user ®

Стаж: 7 лет 7 месяцев

Сообщений: 20008

Пост Пост: #1 от 09-Фев-2015 21:03

[Цитировать]

Ярость / Fury
Страна: Великобритания, США, Китай
Жанр: Боевик, драма, военный
Год выпуска: 2014
Продолжительность: 02:14:38
Перевод: Профессиональный (дублированный) Rus, Ukr
Перевод 2: Одноголосый закадровый А.Матвеев
Cубтитры: Russian (Forced, Full), Ukrainian (Forced), English (Forced, Full)
Оригинальная аудиодорожка: английский
Режиссер: Дэвид Эйр / David Ayer
В ролях: Брэд Питт, Логан Лерман, Шайа ЛаБаф, Майкл Пенья, Джон Бернтал, Джейсон Айзекс, Джим Пэррак, Брэд Уильям Хенке, Кевин Вэнс, Завьер Сэмюэл, Анамария Маринка, Алисия фон Риттберг, Скотт Иствуд.
Описание: Стоит апрель 1945 года, и победа над немцами уже близка: союзники уверенно продвигаются вглубь вражеской территории, и оказываемое им сопротивление становится слабее день ото дня. Это, однако, совсем не значит, что на пути к победе союзные войска не потеряют еще множество людей, и многие солдаты сознают, что смерть ждет на расстоянии вытянутой руки. Среди закаленных в бою пессимистов, каждый день ведущих ожесточенные бои во имя победы, экипаж танка, на чьем дуле намалевано слово «Ярость».
Доп. информация: Перевод А.Матвеева доступен благодаря будулайроманов, dikii. Работа со звуком - Переводман. В переводе большое количество ненормативной лексики.

Тип релиза: BDRip 1080p
Контейнер: MKV
Видео: MPEG-4 AVC, 13.4 Mбит/с, 1920x804, 23,976 fps
Аудио: Russian: 48 kHz, AC3, 3/2 (L,C,R,l,r) + LFE ch, ~640.00 kbps avg |Дубляж, Blu-ray EUR|
Аудио 2: Ukrainian: 48 kHz, AC3, 3/2 (L,C,R,l,r) + LFE ch, ~640.00 kbps avg |Дубляж, Blu-ray EUR|
Аудио 3: Russian: 48 kHz/16-bit, DTS, 3/2 (L,C,R,l,r) + LFE ch, ~1536.00 kbps avg |Одноголосый закадровый, А.Матвеев|
Аудио 4: English: 48 kHz/16-bit, DTS, 3/2 (L,C,R,l,r) + LFE ch, ~1536.00 kbps avg
Формат субтитров: softsub (SRT)
MediaInfo
x264 info: frame I:1462 Avg QP:15.45 size:181056
x264 info: frame P:39285 Avg QP:16.45 size:100451
x264 info: frame B:152933 Avg QP:17.55 size: 63440
x264 info: consecutive B-frames: 1.8% 2.0% 3.7% 22.9% 16.0% 30.4% 9.5% 11.8% 1.6% 0.3%
Format : Matroska
Format version : Version 4 / Version 2
File size : 17.0 GiB
Duration : 2h 14mn
Overall bit rate : 18.1 Mbps
Movie name : Tonik
Encoded date : UTC 2015-02-08 06:31:29
Writing application : mkvmerge v7.1.0 ('Good Love') 64bit built on Jul 27 2014 13:06:55
Writing library : libebml v1.3.0 + libmatroska v1.4.1
DURATION : 02:03:52.474000000
NUMBER_OF_FRAMES : 1469
NUMBER_OF_BYTES : 42729
_STATISTICS_WRITING_APP : mkvmerge v7.1.0 ('Good Love') 64bit built on Jul 27 2014 13:06:55
_STATISTICS_WRITING_DATE_UTC : 2015-02-08 06:31:29
_STATISTICS_TAGS : BPS DURATION NUMBER_OF_FRAMES NUMBER_OF_BYTES
Video
ID : 1
Format : AVC
Format/Info : Advanced Video Codec
Format profile : High@L4.1
Format settings, CABAC : Yes
Format settings, ReFrames : 5 frames
Codec ID : V_MPEG4/ISO/AVC
Duration : 2h 14mn
Bit rate : 13.4 Mbps
Width : 1 920 pixels
Height : 804 pixels
Display aspect ratio : 2.40:1
Frame rate mode : Constant
Frame rate : 23.976 fps
Color space : YUV
Chroma subsampling : 4:2:0
Bit depth : 8 bits
Scan type : Progressive
Bits/(Pixel*Frame) : 0.363
Stream size : 12.6 GiB (74%)
Writing library : x264 core 142 r2479 dd79a61
Encoding settings : cabac=1 / ref=5 / deblock=1:-3:-3 / analyse=0x3:0x133 / me=umh / subme=10 / psy=1 / psy_rd=1.02:0.00 / mixed_ref=1 / me_range=48 / chroma_me=1 / trellis=2 / 8x8dct=1 / cqm=0 / deadzone=21,11 / fast_pskip=1 / chroma_qp_offset=-2 / threads=16 / lookahead_threads=2 / sliced_threads=0 / nr=0 / decimate=1 / interlaced=0 / bluray_compat=0 / constrained_intra=0 / bframes=9 / b_pyramid=2 / b_adapt=2 / b_bias=0 / direct=3 / weightb=1 / open_gop=0 / weightp=2 / keyint=250 / keyint_min=23 / scenecut=40 / intra_refresh=0 / rc_lookahead=100 / rc=crf / mbtree=0 / crf=17.6 / qcomp=0.70 / qpmin=0 / qpmax=69 / qpstep=4 / vbv_maxrate=50000 / vbv_bufsize=62500 / crf_max=0.0 / nal_hrd=none / filler=0 / ip_ratio=1.20 / pb_ratio=1.10 / aq=1:0.70
Language : English
Default : Yes
Forced : No
DURATION : 02:14:38.070000000
NUMBER_OF_FRAMES : 193680
NUMBER_OF_BYTES : 13913036312
_STATISTICS_WRITING_APP : mkvmerge v7.1.0 ('Good Love') 64bit built on Jul 27 2014 13:06:55
_STATISTICS_WRITING_DATE_UTC : 2015-02-08 06:31:29
_STATISTICS_TAGS : BPS DURATION NUMBER_OF_FRAMES NUMBER_OF_BYTES
Audio #1
ID : 2
Format : AC-3
Format/Info : Audio Coding 3
Mode extension : CM (complete main)
Format settings, Endianness : Big
Codec ID : A_AC3
Duration : 2h 14mn
Bit rate mode : Constant
Bit rate : 640 Kbps
Channel(s) : 6 channels
Channel positions : Front: L C R, Side: L R, LFE
Sampling rate : 48.0 KHz
Bit depth : 16 bits
Compression mode : Lossy
Stream size : 616 MiB (4%)
Title : AC3 5.1 @ 640 kbps - DUB, Blu-ray EUR
Language : Russian
Default : Yes
Forced : No
Audio #2
ID : 3
Format : AC-3
Format/Info : Audio Coding 3
Mode extension : CM (complete main)
Format settings, Endianness : Big
Codec ID : A_AC3
Duration : 2h 14mn
Bit rate mode : Constant
Bit rate : 640 Kbps
Channel(s) : 6 channels
Channel positions : Front: L C R, Side: L R, LFE
Sampling rate : 48.0 KHz
Bit depth : 16 bits
Compression mode : Lossy
Stream size : 616 MiB (4%)
Title : AC3 5.1 @ 640 kbps - DUB, Blu-ray EUR
Language : Ukrainian
Default : No
Forced : No
Audio #3
ID : 4
Format : DTS
Format/Info : Digital Theater Systems
Mode : 16
Format settings, Endianness : Big
Codec ID : A_DTS
Duration : 2h 14mn
Bit rate mode : Constant
Bit rate : 1 509 Kbps
Channel(s) : 6 channels
Channel positions : Front: L C R, Side: L R, LFE
Sampling rate : 48.0 KHz
Bit depth : 16 bits
Compression mode : Lossy
Stream size : 1.42 GiB (8%)
Title : DTS 5.1 @ 1536 kbps - AVO, A.Matveev
Language : Russian
Default : No
Forced : No
Audio #4
ID : 5
Format : DTS
Format/Info : Digital Theater Systems
Mode : 16
Format settings, Endianness : Big
Codec ID : A_DTS
Duration : 2h 14mn
Bit rate mode : Constant
Bit rate : 1 509 Kbps
Channel(s) : 6 channels
Channel positions : Front: L C R, Side: L R, LFE
Sampling rate : 48.0 KHz
Bit depth : 16 bits
Compression mode : Lossy
Stream size : 1.42 GiB (8%)
Title : DTS 5.1 @ 1536 kbps
Language : English
Default : No
Forced : No
Text #1
ID : 6
Format : UTF-8
Codec ID : S_TEXT/UTF8
Codec ID/Info : UTF-8 Plain Text
Title : Forced
Language : Russian
Default : Yes
Forced : No
Text #2
ID : 7
Format : UTF-8
Codec ID : S_TEXT/UTF8
Codec ID/Info : UTF-8 Plain Text
Title : Blu-ray EUR
Language : Russian
Default : No
Forced : No
Text #3
ID : 8
Format : UTF-8
Codec ID : S_TEXT/UTF8
Codec ID/Info : UTF-8 Plain Text
Title : Forced
Language : Ukrainian
Default : No
Forced : No
Text #4
ID : 9
Format : UTF-8
Codec ID : S_TEXT/UTF8
Codec ID/Info : UTF-8 Plain Text
Title : Forced
Language : English
Default : No
Forced : No
Text #5
ID : 10
Format : UTF-8
Codec ID : S_TEXT/UTF8
Codec ID/Info : UTF-8 Plain Text
Language : English
Default : No
Forced : No
Menu
00:00:00.000 : en:1.
00:07:58.228 : en:2.
00:20:24.682 : en:3.
00:26:38.931 : en:4.
00:37:26.035 : en:5.
00:43:24.060 : en:6.
00:51:59.408 : en:7.
01:01:20.302 : en:8.
01:13:46.547 : en:9.
01:18:29.705 : en:10.
01:26:21.802 : en:11.
01:29:50.427 : en:12.
01:35:39.192 : en:13.
01:48:12.111 : en:14.
01:57:49.980 : en:15.
02:00:41.609 : en:16.
Скриншоты
Скачать

Скачать торрент!

Как скачивать? · Что такое торрент? · Рейтинг и ограничения

Сайт не распространяет и не хранит электронные версии произведений, а лишь предоставляет доступ к создаваемому пользователями каталогу ссылок на торрент-файлы, которые содержат только списки хеш-сумм

[Профиль] [ЛС]
Показать сообщения:    
Ответить на тему

Текущее время: Сегодня 22:41

Часовой пояс: GMT + 4



Вы не можете начинать темы
Вы не можете отвечать на сообщения
Вы не можете редактировать свои сообщения
Вы не можете удалять свои сообщения
Вы не можете голосовать в опросах
Вы не можете прикреплять файлы к сообщениям
Вы не можете скачивать файлы