Мир взрослых / Взрослый мир / Adult World (Скотт Коффи / Scott Coffey) [2013, США, комедия, мелодрама, драма, WEB-DL 1080p] Sub Rus Eng + Original Eng

Ответить на тему
 
Автор Сообщение

user ®

Стаж: 7 лет 7 месяцев

Сообщений: 20008

Пост Пост: #1 от 09-Фев-2015 21:03

[Цитировать]

Мир взрослых / Взрослый мир / Adult World- Страна: США
Жанр: комедия, мелодрама, драма
Год выпуска: 2013
Продолжительность: 01:33:26
Перевод: Субтитры (doc_ravik)

Оригинальная аудиодорожка: английский
Субтитры: русские, английские-Режиссер: Скотт Коффи / Scott Coffey
В ролях: Эмма Робертс, Эван Питерс, Джон Кьюсак, Саммер Шелтон, Крис Ригги, Шеннон Мари Вудворд, Кэтрин Ллойд Барнс, Рид Бирни, Маню Гарги, Патриция Сквайр
Описание: Молодая девушка мечтает стать настоящим поэтом, но по стечению обстоятельств застревает на работе, в магазине для взрослых.-Кинопоиск | IMDB
-Качество видео: WEB-DL 1080p
Формат видео: MKV
Видео: 1920x1080 (16:9), H264, 23.976 fps, 4 874 Kbps
Аудио: 48 kHz, AC3, 6 channels, 384 Kbps
Формат субтитров: softsub (SRT)
Пример субтитров
100:00:57,587 --> 00:01:01,696"Для посмертной публикации".
200:01:21,302 --> 00:01:22,652Ах, Сильвия.
300:01:39,252 --> 00:01:41,511Нет, это уже суицидный плагиат.
400:02:20,792 --> 00:02:24,628ГОДОМ РАНЕЕ
500:02:39,792 --> 00:02:42,752"Забвение отступает,пропасть разверзается;
600:02:43,113 --> 00:02:45,112Кричащая грязь хаоса;
700:02:45,865 --> 00:02:47,096Ослепляющая".
800:02:47,490 --> 00:02:48,979Сильный ритм, Эми.
900:02:49,924 --> 00:02:51,252Сильные строки.
1000:02:51,740 --> 00:02:53,948- Спасибо.- Мазел тов.
1100:02:54,420 --> 00:02:56,920Джош? Ты следующий.
1200:02:57,455 --> 00:02:58,612Хорошо.
1300:03:02,606 --> 00:03:04,252Мне понравилось.
1400:03:07,470 --> 00:03:11,221"Изумрудная услада: Ода абсенту".
1500:03:12,250 --> 00:03:15,276Воспринимайте ее без пунктуации,потому что ее там нет.
1600:03:22,862 --> 00:03:25,307Ты лучший поэт в кампусе.
1700:03:32,646 --> 00:03:33,807Твоя очередь.
1800:03:39,120 --> 00:03:41,549Ага. Просто сдерни его.
1900:03:42,360 --> 00:03:43,745Ты еще девственница?
2000:03:44,151 --> 00:03:46,956Нет. Нет, уже нет.
Скриншоты



Скриншоты резервные MI
GeneralUnique ID : 197520007326350832077773010289950616528 (0x9498F83C75A96538BE2A4F598B4E6BD0)Complete name : G:\Torrents\Мои\Adult.World.2013.1080p.WEB-DL.H264.sub.rus.mkvFormat : MatroskaFile size : 3.50 GiBDuration : 1h 33mnOverall bit rate : 5 365 KbpsEncoded date : UTC 2015-02-08 08:19:34Writing application : mkvmerge v4.0.0 ('The Stars were mine') сборка от Jun 6 2010 16:18:42Writing library : libebml v1.0.0 + libmatroska v1.0.0
VideoID : 1Format : AVCFormat/Info : Advanced Video CodecFormat profile : High@L4.0Format settings, CABAC : YesFormat settings, ReFrames : 4 framesCodec ID : V_MPEG4/ISO/AVCDuration : 1h 33mnBit rate : 4 874 KbpsWidth : 1 920 pixelsHeight : 1 080 pixelsDisplay aspect ratio : 16:9Frame rate : 23.976 fpsColor space : YUVChroma subsampling : 4:2:0Bit depth : 8 bitsScan type : ProgressiveBits/(Pixel*Frame) : 0.098Stream size : 3.18 GiB (91%)Language : EnglishColor primaries : BT.709-5, BT.1361, IEC 61966-2-4, SMPTE RP177Transfer characteristics : BT.709-5, BT.1361Matrix coefficients : BT.709-5, BT.1361, IEC 61966-2-4 709, SMPTE RP177
AudioID : 2Format : AC-3Format/Info : Audio Coding 3Mode extension : CM (complete main)Codec ID : A_AC3Duration : 1h 33mnBit rate mode : ConstantBit rate : 384 KbpsChannel(s) : 6 channelsChannel positions : Front: L C R, Side: L R, LFESampling rate : 48.0 KHzBit depth : 16 bitsCompression mode : LossyStream size : 257 MiB (7%)Language : English
Text #1ID : 3Format : UTF-8Codec ID : S_TEXT/UTF8Codec ID/Info : UTF-8 Plain TextTitle : doc_ravikLanguage : Russian
Text #2ID : 4Format : UTF-8Codec ID : S_TEXT/UTF8Codec ID/Info : UTF-8 Plain TextLanguage : English
Menu00:00:00.000 : en:Chapter 100:10:15.000 : en:Chapter 200:20:42.000 : en:Chapter 300:33:18.000 : en:Chapter 400:43:14.000 : en:Chapter 500:52:35.000 : en:Chapter 601:03:10.000 : en:Chapter 701:13:56.000 : en:Chapter 801:23:01.000 : en:Chapter 901:30:10.000 : en:Chapter 10
Скачать

Скачать торрент!

Как скачивать? · Что такое торрент? · Рейтинг и ограничения

Сайт не распространяет и не хранит электронные версии произведений, а лишь предоставляет доступ к создаваемому пользователями каталогу ссылок на торрент-файлы, которые содержат только списки хеш-сумм

[Профиль] [ЛС]
Показать сообщения:    
Ответить на тему

Текущее время: Сегодня 15:35

Часовой пояс: GMT + 4



Вы не можете начинать темы
Вы не можете отвечать на сообщения
Вы не можете редактировать свои сообщения
Вы не можете удалять свои сообщения
Вы не можете голосовать в опросах
Вы не можете прикреплять файлы к сообщениям
Вы не можете скачивать файлы