Пираньи / Piranha (Александр Ажа / Alexandre Aja) [2010, США, ужасы, BDRip 720p] Dub + Dub (РЕН ТВ) + Sub Rus, Eng + Original Eng

Ответить на тему
 
Автор Сообщение

user ®

Стаж: 7 лет 7 месяцев

Сообщений: 20008

Пост Пост: #1 от 09-Фев-2015 21:03

[Цитировать]

Пираньи / Piranha
Страна: США
Жанр: ужасы
Год выпуска: 2010
Продолжительность: 01:28:21
Перевод 1: Профессиональный (дублированный)
Перевод 2: Профессиональный (дублированный) РЕН ТВ
Cубтитры: русские, английские
Оригинальная аудиодорожка: английский
Режиссер: Александр Ажа / Alexandre Aja
В ролях: Элизабет Шу, Стивен Р. МакКуин, Адам Скотт, Джерри О’Коннелл, Джессика Зор, Винг Реймз, Бруклин Пру, Сэйдж Райан, Кристофер Ллойд, Келли Брук...
Описание: 20 тысяч подростков курортного городка у озера Виктория готовятся к празднованию ежегодного праздника начала лета. Но ночное землетрясение высвобождает сотни тысяч доисторических пираний прямо накануне торжества. Очаровательная шериф, ее подчиненные-полицейские и доктор Горден Рэйбэнкс решают сделать все, чтобы веселый праздник молодежи в озере не превратился в кровавое пиршество. Но пираньи уже знают ответ, кто победит: молодость или многовековая жажда крови…
Доп. информация: Исходник звука с переводом РЕН ТВ предоставил Slim9174, синхронизировал Dreven.
Сэмпл: http://multi-up.com/1031842
Тип релиза: BDRip 720p Исходник Blu-Ray Remux hdreactor
Контейнер: MKV
Видео: 1280x534 (2.40:1), 23.976 fps, AVC, ~5377 Kbps, 0.328 bits/pixel
Аудио 1: Russian, 48.0 KHz, AC3, 6 ch, 448 Kbps
Аудио 2: Russian, 48.0 KHz, AC3, 1 ch, 192 Kbps – РЕН ТВ
Аудио 3: English, 48.0 KHz, DTS, 6 ch, 1510 Kbps

Сравнение
Log
x264 Q18.0 1280x534 23.976fps (127113 frames)
avs4x264.exe: -L x264_64.exe --crf 18.0 --preset medium --ref 9 --deblock -1:-1 --merange 32 --bframes 10 --b-adapt 2 --trellis 2 --no-fast-pskip --psy-rd 1.00:0.10 --partitions all --subme 10 --me umh --rc-lookahead 50 --sar 1:1 --output "C:\Users\1\Desktop\Piranha.mp4" "C:\Temp\0020.avs"
raw [info]: 1280x534p 1:1 @ 24000/1001 fps (cfr)
x264 [info]: using SAR=1/1
x264 [info]: using cpu capabilities: MMX2 SSE2Fast LZCNT
x264 [info]: profile High, level 4.0
x264 [info]: frame I:849 Avg QP:16.58 size:124141
x264 [info]: frame P:34767 Avg QP:19.81 size: 44257
x264 [info]: frame B:91497 Avg QP:22.42 size: 22064
x264 [info]: consecutive B-frames: 5.6% 4.2% 7.4% 45.3% 14.4% 18.4% 2.1% 1.4% 0.6% 0.6% 0.2%
x264 [info]: mb I I16..4: 6.2% 71.4% 22.3%
x264 [info]: mb P I16..4: 2.8% 19.0% 3.4% P16..4: 34.2% 19.5% 13.6% 0.8% 0.2% skip: 6.7%
x264 [info]: mb B I16..4: 0.2% 4.2% 1.3% B16..8: 40.7% 16.6% 5.6% direct: 7.6% skip:23.8% L0:42.7% L1:42.6% BI:14.7%
x264 [info]: 8x8 transform intra:74.8% inter:70.5%
x264 [info]: coded y,uvDC,uvAC intra: 85.9% 87.3% 65.2% inter: 39.8% 33.5% 9.8%
x264 [info]: i16 v,h,dc,p: 52% 17% 7% 24%
x264 [info]: i8 v,h,dc,ddl,ddr,vr,hd,vl,hu: 10% 12% 7% 8% 13% 11% 15% 10% 14%
x264 [info]: i4 v,h,dc,ddl,ddr,vr,hd,vl,hu: 8% 14% 4% 7% 13% 11% 16% 9% 17%
x264 [info]: i8c dc,h,v,p: 38% 28% 15% 18%
x264 [info]: Weighted P-Frames: Y:2.3% UV:1.6%
x264 [info]: ref P L0: 45.5% 11.6% 16.5% 7.1% 5.9% 4.3% 3.7% 2.4% 2.4% 0.5% 0.0%
x264 [info]: ref B L0: 76.7% 9.8% 5.2% 2.9% 2.2% 1.8% 1.1% 0.4%
x264 [info]: ref B L1: 94.3% 5.7%
x264 [info]: kb/s:5527.18
x264 [total]: encoded 127113 frames, 4.67 fps, 5527.18 kb/s
MediaInfo
General
Unique ID : 245558372004381135290756693717379635252 (0xB8BCD279FBCC3ACCB1304CE686D6D834)
Complete name : C:\Piranha.mkv
Format : Matroska
Format version : Version 4 / Version 2
File size : 4.74 GiB
Duration : 1h 28mn
Overall bit rate : 7 679 Kbps
Encoded date : UTC 2015-02-07 04:14:26
Writing application : mkvmerge v7.5.0 ('Glass Culture') 64bit built on Jan 4 2015 16:48:44
Writing library : libebml v1.3.1 + libmatroska v1.4.2
DURATION : 01:20:19.611000000
NUMBER_OF_FRAMES : 1082
NUMBER_OF_BYTES : 26833
_STATISTICS_WRITING_APP : mkvmerge v7.5.0 ('Glass Culture') 64bit built on Jan 4 2015 16:48:44
_STATISTICS_WRITING_DATE_UT : 2015-02-07 04:14:26
_STATISTICS_TAGS : BPS DURATION NUMBER_OF_FRAMES NUMBER_OF_BYTES
Video
ID : 1
Format : AVC
Format/Info : Advanced Video Codec
Format profile : High@L4.0
Format settings, CABAC : Yes
Format settings, ReFrames : 9 frames
Codec ID : V_MPEG4/ISO/AVC
Duration : 1h 28mn
Bit rate : 5 377 Kbps
Width : 1 280 pixels
Height : 534 pixels
Display aspect ratio : 2.40:1
Frame rate mode : Constant
Frame rate : 23.976 fps
Color space : YUV
Chroma subsampling : 4:2:0
Bit depth : 8 bits
Scan type : Progressive
Bits/(Pixel*Frame) : 0.328
Stream size : 3.32 GiB (70%)
Writing library : x264 core 142 r2479 dd79a61
Encoding settings : cabac=1 / ref=9 / deblock=1:-1:-1 / analyse=0x3:0x133 / me=umh / subme=10 / psy=1 / psy_rd=1.00:0.10 / mixed_ref=1 / me_range=32 / chroma_me=1 / trellis=2 / 8x8dct=1 / cqm=0 / deadzone=21,11 / fast_pskip=0 / chroma_qp_offset=-3 / threads=6 / lookahead_threads=1 / sliced_threads=0 / nr=0 / decimate=1 / interlaced=0 / bluray_compat=0 / constrained_intra=0 / bframes=10 / b_pyramid=2 / b_adapt=2 / b_bias=0 / direct=1 / weightb=1 / open_gop=0 / weightp=2 / keyint=250 / keyint_min=23 / scenecut=40 / intra_refresh=0 / rc_lookahead=50 / rc=crf / mbtree=1 / crf=18.0 / qcomp=0.60 / qpmin=0 / qpmax=69 / qpstep=4 / ip_ratio=1.40 / aq=1:1.00
Language : English
Default : Yes
Forced : No
Audio #1
ID : 2
Format : AC-3
Format/Info : Audio Coding 3
Mode extension : CM (complete main)
Format settings, Endianness : Big
Codec ID : A_AC3
Duration : 1h 28mn
Bit rate mode : Constant
Bit rate : 448 Kbps
Channel(s) : 6 channels
Channel positions : Front: L C R, Side: L R, LFE
Sampling rate : 48.0 KHz
Bit depth : 16 bits
Compression mode : Lossy
Stream size : 283 MiB (6%)
Language : Russian
Default : Yes
Forced : No
Audio #2
ID : 3
Format : AC-3
Format/Info : Audio Coding 3
Mode extension : CM (complete main)
Format settings, Endianness : Big
Codec ID : A_AC3
Duration : 1h 28mn
Bit rate mode : Constant
Bit rate : 192 Kbps
Channel(s) : 1 channel
Channel positions : Front: C
Sampling rate : 48.0 KHz
Bit depth : 16 bits
Compression mode : Lossy
Stream size : 121 MiB (3%)
Title : РЕН ТВ
Language : Russian
Default : No
Forced : No
Audio #3
ID : 4
Format : DTS
Format/Info : Digital Theater Systems
Mode : 16
Format settings, Endianness : Big
Codec ID : A_DTS
Duration : 1h 28mn
Bit rate mode : Constant
Bit rate : 1 509 Kbps
Channel(s) : 6 channels
Channel positions : Front: L C R, Side: L R, LFE
Sampling rate : 48.0 KHz
Bit depth : 16 bits
Compression mode : Lossy
Stream size : 954 MiB (20%)
Language : English
Default : No
Forced : No
Text #1
ID : 5
Format : UTF-8
Codec ID : S_TEXT/UTF8
Codec ID/Info : UTF-8 Plain Text
Language : Russian
Default : No
Forced : No
Text #2
ID : 6
Format : UTF-8
Codec ID : S_TEXT/UTF8
Codec ID/Info : UTF-8 Plain Text
Language : English
Default : No
Forced : No
Menu
00:00:00.000 : :Chapter 01
00:07:22.817 : :Chapter 02
00:13:04.657 : :Chapter 03
00:20:40.864 : :Chapter 04
00:30:20.068 : :Chapter 05
00:38:55.791 : :Chapter 06
00:45:19.341 : :Chapter 07
00:51:20.786 : :Chapter 08
01:01:22.095 : :Chapter 09
01:08:05.872 : :Chapter 10
01:16:33.463 : :Chapter 11
01:22:11.718 : :Chapter 12
01:28:21.587 : :Chapter 13
Скриншоты
Скачать

Скачать торрент!

Как скачивать? · Что такое торрент? · Рейтинг и ограничения

Сайт не распространяет и не хранит электронные версии произведений, а лишь предоставляет доступ к создаваемому пользователями каталогу ссылок на торрент-файлы, которые содержат только списки хеш-сумм

[Профиль] [ЛС]
Показать сообщения:    
Ответить на тему

Текущее время: Сегодня 20:09

Часовой пояс: GMT + 4



Вы не можете начинать темы
Вы не можете отвечать на сообщения
Вы не можете редактировать свои сообщения
Вы не можете удалять свои сообщения
Вы не можете голосовать в опросах
Вы не можете прикреплять файлы к сообщениям
Вы не можете скачивать файлы