Кибер / Blackhat (Майкл Манн / Michael Mann) [2015, США, боевик, триллер, драма, криминал, детектив, CamRip] Dub + Original Eng

Ответить на тему
 
Автор Сообщение

user ®

Стаж: 7 лет 7 месяцев

Сообщений: 20008

Пост Пост: #1 от 09-Фев-2015 21:03

[Цитировать]

Кибер / Blackhat
Страна: США
Жанр: боевик, триллер, драма, криминал, детектив
Год выпуска: 2015
Продолжительность: 02:04:05
Перевод: Профессиональный (дублированный)
Cубтитры: нет
Оригинальная аудиодорожка: английский
Режиссер: Майкл Манн / Michael Mann
В ролях: Крис Хемсворт, Виола Дэвис, Уильям Мапотер, Тан Вэй, Холт МакКэллани, Джон Ортис, Ричи Костер, Трэйси Чимо, Джейсон Батлер Харнер, Брэндон Молале
Описание: Главный герой, выпущенный из тюрьмы хакер, вместе со своими американскими и китайскими коллегами противостоит могущественной кибер-мафии, сферы влияния которой распространяются от Чикаго до Лос-Анджелеса и от Гонконга до Джакарты.
Дополнительно:


Внимание! Оригинальная звуковая дорожка смещена и не синхронизирована с видео.
Сэмпл: http://sendfile.su/1083332
Качество видео: CamRip
Формат видео: AVI
Видео: Xvid, 720x336, 29.97 fps, 1906kbps
Аудио: Dolby AC3 48000Hz, 2ch, 256kbps, дубляж
Аудио 2: Dolby AC3 48000Hz, 2ch, 192kbps, оригинал
MediaInfo
General
Complete name : E:\Video\Kiber.2015.D.CAMRip.2100MB..avi
Format : AVI
Format/Info : Audio Video Interleave
Format profile : OpenDML
File size : 2.06 GiB
Duration : 2h 4mn
Overall bit rate : 2 374 Kbps
Movie name : Kiber.2015.D.CamRip.2100MB.uniongang.tv
Director : 3imeMachi9e&Niko&KINOPark
Genre : Action
Writing application : VirtualDubMod 1.5.10.3 | www.virtualdub-fr.org || (build 2550/release)
Writing library : VirtualDubMod build 2550/release
Original source form/Name : Movie
Copyright : UNIONGANG.TV
Video
ID : 0
Format : MPEG-4 Visual
Format profile : Advanced Simple@L5
Format settings, BVOP : 3
Format settings, QPel : No
Format settings, GMC : No warppoints
Format settings, Matrix : Custom
Codec ID : XVID
Codec ID/Hint : XviD
Duration : 2h 4mn
Bit rate : 1 907 Kbps
Width : 720 pixels
Height : 336 pixels
Display aspect ratio : 2.143
Frame rate : 29.970 fps
Color space : YUV
Chroma subsampling : 4:2:0
Bit depth : 8 bits
Scan type : Progressive
Compression mode : Lossy
Bits/(Pixel*Frame) : 0.263
Stream size : 1.65 GiB (80%)
Writing library : XviD 1.2.1 (UTC 2008-12-04)
Audio #1
ID : 1
Format : AC-3
Format/Info : Audio Coding 3
Mode extension : CM (complete main)
Format settings, Endianness : Big
Codec ID : 2000
Duration : 2h 4mn
Bit rate mode : Constant
Bit rate : 256 Kbps
Channel(s) : 2 channels
Channel positions : Front: L R
Sampling rate : 48.0 KHz
Bit depth : 16 bits
Compression mode : Lossy
Delay relative to video : 1ms
Stream size : 227 MiB (11%)
Alignment : Split accross interleaves
Interleave, duration : 33 ms (1.00 video frame)
Interleave, preload duratio : 500 ms
Audio #2
ID : 2
Format : AC-3
Format/Info : Audio Coding 3
Mode extension : CM (complete main)
Format settings, Endianness : Big
Codec ID : 2000
Duration : 2h 1mn
Bit rate mode : Constant
Bit rate : 192 Kbps
Channel(s) : 2 channels
Channel positions : Front: L R
Sampling rate : 48.0 KHz
Bit depth : 16 bits
Compression mode : Lossy
Delay relative to video : 1ms
Stream size : 167 MiB (8%)
Alignment : Split accross interleaves
Interleave, duration : 34 ms (1.02 video frame)
Interleave, preload duratio : 500 ms
Скриншот c названием фильма Скриншоты
Скачать

Скачать торрент!

Как скачивать? · Что такое торрент? · Рейтинг и ограничения

Сайт не распространяет и не хранит электронные версии произведений, а лишь предоставляет доступ к создаваемому пользователями каталогу ссылок на торрент-файлы, которые содержат только списки хеш-сумм

[Профиль] [ЛС]
Показать сообщения:    
Ответить на тему

Текущее время: Сегодня 13:40

Часовой пояс: GMT + 4



Вы не можете начинать темы
Вы не можете отвечать на сообщения
Вы не можете редактировать свои сообщения
Вы не можете удалять свои сообщения
Вы не можете голосовать в опросах
Вы не можете прикреплять файлы к сообщениям
Вы не можете скачивать файлы