Месть женщины-меченосца / Revengeful Swordswoman (Артис Чоу / Artis Chow) [1978, Гонконг, Китай, кунг-фу, драма, DVDRip] AVO (С. Кузнецов)

Ответить на тему
 
Автор Сообщение

user ®

Стаж: 13 лет

Сообщений: 15071

Пост Пост: #1 от 09-Фев-2015 16:54

[Цитировать]

Месть женщины-меченосца / Revengeful Swordswoman- -Страна: Гонконг, Китай
Жанр: кунг-фу, драма
Год выпуска: 1978
Продолжительность: 01:30:03-Перевод: Авторский (одноголосый закадровый) [С. Кузнецов]-Cубтитры: английские [вшитые]
Оригинальная аудиодорожка: нет
Режиссер: Артис Чоу / Artis Chow
В ролях: Чиа Линг, Филлип Ко, Вен Чианг-Лонг, Ванг Си, Вонг Чи-Санг, Га Хой...
Описание: Главная героиня в исполнении Чиа Линг обучается у своего учителя боевым искусствам, чтобы отомстить за смерть своего отца, известного генерала, которого предали его же соратники. Отправляясь в путешествие, она берет с собой слугу и по дороге к Лорду Ку, который как раз и должен быть повинен в убийстве, выносит одного за другим его ближайших ставленников, многие из которых, кстати, личности весьма колоритные и фольклорные для гонконгского кинематографа (например, Однорукий Боксер в исполнении Филлипа Ко, о приключениях которого был снят не один фильм.
Релиз от -
Сэмпл: http://multi-up.com/1031966
Качество видео: DVDRip
Формат видео: AVI
Видео: MPEG-4 Visual at 2118 Кбит/сек; 704 x 400 (1.760) at 23.976 fps
Аудио: AC-3 at 192 Кбит/сек; 2 канала, 48,0 КГц
Автор -
MediaInfo
Общее
Полное имя : D:\Фильмы\Азиатские\Месть женщины-меченосца\Swordswoman.1978.DVDRip.XviD.1400MB. rip by [Assasssin's Creed].avi
Формат : AVI
Формат/Информация : Audio Video Interleave
Размер файла : 1,46 Гбайт
Продолжительность : 1 ч. 30 м.
Общий поток : 2319 Кбит/сек
Программа кодирования : VirtualDubMod 1.5.10.3 | www.virtualdub-fr.org || (build 2550/release)
Библиотека кодирования : VirtualDubMod build 2550/release
Видео
Идентификатор : 0
Формат : MPEG-4 Visual
Профиль формата : Advanced Simple@L5
Параметр BVOP формата : 1
Параметр QPel формата : Нет
Параметр GMC формата : Без точки перехода
Параметр матрицы формата : Default (MPEG)
Идентификатор кодека : XVID
Идентификатор кодека/Подсказка : XviD
Продолжительность : 1 ч. 30 м.
Битрейт : 2118 Кбит/сек
Ширина : 704 пикселя
Высота : 400 пикселей
Соотношение сторон : 16:9
Частота кадров : 23,976 кадра/сек
Цветовое пространство : YUV
Субдискретизация насыщенности : 4:2:0
Битовая глубина : 8 бит
Тип развёртки : Прогрессивная
Метод сжатия : С потерями
Бит/(Пиксели*Кадры) : 0.314
Размер потока : 1,34 Гбайт (91%)
Библиотека кодирования : XviD 1.2.1 (UTC 2008-12-04)
Аудио
Идентификатор : 1
Формат : AC-3
Формат/Информация : Audio Coding 3
Расширение режима : CM (complete main)
Параметр Endianness формата : Big
Идентификатор кодека : 2000
Продолжительность : 1 ч. 30 м.
Вид битрейта : Постоянный
Битрейт : 192 Кбит/сек
Каналы : 2 канала
Расположение каналов : Front: L R
Частота : 48,0 КГц
Битовая глубина : 16 бит
Метод сжатия : С потерями
Размер потока : 124 Мбайт (8%)
Выравнивание : Разделение по промежуткам
Продолжительность промежутка : 42 мс. (1,00 видеокадр)
Время предзагрузки промежутка : 500 мс.
Скриншот c названием фильма Скриншоты
Скачать

Скачать торрент! Месть женщины-меченосца / Revengeful Swordswoman (Артис Чоу / Artis Chow) [1978, Гонконг, Китай, кунг-фу, драма, DVDRip] AVO (С. Кузнецов)

Как скачивать? · Что такое торрент? · Рейтинг и ограничения

Сайт не распространяет и не хранит электронные версии произведений, а лишь предоставляет доступ к создаваемому пользователями каталогу ссылок на торрент-файлы, которые содержат только списки хеш-сумм

[Профиль] [ЛС]
Показать сообщения:    
Ответить на тему

Текущее время: Сегодня 16:52

Часовой пояс: GMT + 4



Вы не можете начинать темы
Вы не можете отвечать на сообщения
Вы не можете редактировать свои сообщения
Вы не можете удалять свои сообщения
Вы не можете голосовать в опросах
Вы не можете прикреплять файлы к сообщениям
Вы не можете скачивать файлы