Тени прошлого (Екатерина Двигубская) [2014, Россия, Мелодрама, HDTV 1080i]

Ответить на тему
 
Автор Сообщение

user ®

Стаж: 7 лет 7 месяцев

Сообщений: 20008

Пост Пост: #1 от 09-Фев-2015 16:54

[Цитировать]

Тени прошлого
Год выпуска: 2014
Производство: Россия / Паламеда Продакшн
Жанр: Мелодрама
Продолжительность: 2 х 01:37:14
Субтитры: нет
Режиссёр: Екатерина Двигубская
В ролях: Анжелика Кольцова, Антон Сёмкин, Кирилл Гребенщиков, Григорий Гандлевский, Дарья Бранкевич, Марина Денисова, Вера Кавалерова, Андрей Гладкий, Виталий Новиков
Описание: Для главной героини Ксении, семья была тихой гаванью. Она любила мужа, тот любил ее. Но появился Николай и стал шантажировать героиню ее прошлым. Ксения предпринимает все возможное и невозможное, чтобы муж ничего не узнал. Правда открывается, когда Ксения встречается со своей дочерью, которую она оставила в младенчестве в роддоме.

Качество: HDTV 1080i
Контейнер: TS
Видео: MPEG4 Video (H264) 1920x1080, ~ 7339 Кбит/сек, 25.00fps 0.142 bit/pixel
Аудио: MP2, 2 ch, 48,0 КГц, 256 Кбит/с
Сторонней рекламы нет!
MediaInfo
ОбщееИдентификатор : 1 (0x1)Полное имя : F:\Teni.proshlogo.2014.HDTV.(1080i).MediaClub\Teni.proshlogo.(01.seriya.iz.02).2014.HDTV.(1080i).MediaClub.tsФормат : MPEG-TSРазмер файла : 5,25 ГбайтПродолжительность : 1 ч. 34 м.Общий поток : 7992 Кбит/сек
ВидеоИдентификатор : 69 (0x45)Идентификатор меню : 1 (0x1)Формат : AVCФормат/Информация : Advanced Video CodecПрофиль формата : High@L4.0Параметр CABAC формата : ДаПараметр ReFrames формата : 4 кадраПараметры GOP формата : M=1, N=56Идентификатор кодека : 27Продолжительность : 1 ч. 34 м.Битрейт : 7339 Кбит/секШирина : 1920 пикс.Высота : 1080 пикс.Соотношение сторон : 16:9Частота кадров : 25,000 кадр/секСтандарт вещания : ComponentЦветовое пространство : YUVПодвыборка цветности : 4:2:0Битовая глубина : 8 битТип развёртки : ЧересстрочнаяПорядок развёртки : Верхнее поле первоеБит/(Пиксели*Кадры) : 0.142Размер потока : 4,82 Гбайт (92%)Основные цвета : BT.709-5, BT.1361, IEC 61966-2-4, SMPTE RP177Характеристики трансфера : BT.709-5, BT.1361Коэффициенты матрицы : BT.709-5, BT.1361, IEC 61966-2-4 709, SMPTE RP177
АудиоИдентификатор : 68 (0x44)Идентификатор меню : 1 (0x1)Формат : MPEG AudioВерсия формата : Version 1Профиль формата : Layer 2Идентификатор кодека : 3Продолжительность : 1 ч. 34 м.Вид битрейта : ПостоянныйБитрейт : 256 Кбит/секКаналы : 2 каналаЧастота : 48,0 КГцМетод сжатия : С потерямиРазмер потока : 172 Мбайт (3%)Язык : English
ОбщееИдентификатор : 1 (0x1)Полное имя : F:\Teni.proshlogo.2014.HDTV.(1080i).MediaClub\Teni.proshlogo.(02.seriya.iz.02).2014.HDTV.(1080i).MediaClub.tsФормат : MPEG-TSРазмер файла : 5,14 ГбайтПродолжительность : 1 ч. 33 м.Общий поток : 7872 Кбит/сек
ВидеоИдентификатор : 69 (0x45)Идентификатор меню : 1 (0x1)Формат : AVCФормат/Информация : Advanced Video CodecПрофиль формата : High@L4.0Параметр CABAC формата : ДаПараметр ReFrames формата : 4 кадраПараметры GOP формата : M=1, N=10Идентификатор кодека : 27Продолжительность : 1 ч. 33 м.Битрейт : 7225 Кбит/секШирина : 1920 пикс.Высота : 1080 пикс.Соотношение сторон : 16:9Частота кадров : 25,000 кадр/секСтандарт вещания : ComponentЦветовое пространство : YUVПодвыборка цветности : 4:2:0Битовая глубина : 8 битТип развёртки : ЧересстрочнаяПорядок развёртки : Верхнее поле первоеБит/(Пиксели*Кадры) : 0.139Размер потока : 4,72 Гбайт (92%)Основные цвета : BT.709-5, BT.1361, IEC 61966-2-4, SMPTE RP177Характеристики трансфера : BT.709-5, BT.1361Коэффициенты матрицы : BT.709-5, BT.1361, IEC 61966-2-4 709, SMPTE RP177
АудиоИдентификатор : 68 (0x44)Идентификатор меню : 1 (0x1)Формат : MPEG AudioВерсия формата : Version 1Профиль формата : Layer 2Идентификатор кодека : 3Продолжительность : 1 ч. 33 м.Вид битрейта : ПостоянныйБитрейт : 256 Кбит/секКаналы : 2 каналаЧастота : 48,0 КГцМетод сжатия : С потерямиРазмер потока : 171 Мбайт (3%)Язык : English
Раздача группы:
Отдельное спасибо nikolspup за предоставление материала.
Скриншот c названием фильма Скриншоты
Скачать

Скачать торрент!

Как скачивать? · Что такое торрент? · Рейтинг и ограничения

Сайт не распространяет и не хранит электронные версии произведений, а лишь предоставляет доступ к создаваемому пользователями каталогу ссылок на торрент-файлы, которые содержат только списки хеш-сумм

[Профиль] [ЛС]
Показать сообщения:    
Ответить на тему

Текущее время: Сегодня 08:12

Часовой пояс: GMT + 4



Вы не можете начинать темы
Вы не можете отвечать на сообщения
Вы не можете редактировать свои сообщения
Вы не можете удалять свои сообщения
Вы не можете голосовать в опросах
Вы не можете прикреплять файлы к сообщениям
Вы не можете скачивать файлы