Кулак ярости/ Fist of Fury (Бенни Чан / Benny Chan) [1995, Гонконг, Боевые искусства, DVDRip] VO

Ответить на тему
 
Автор Сообщение

user ®

Стаж: 13 лет

Сообщений: 15071

Пост Пост: #1 от 09-Фев-2015 00:06

[Цитировать]

КУЛАК ЯРОСТИ / Fist of Fury
Страна: Гонконг
Жанр: Боевые искусства
Год выпуска: 1995
Продолжительность: 02:00:39
Перевод: Одноголосый закадровый
Cубтитры: нет
Режиссер: Бенни Чан/Benny Chan
В ролях: Донни Йен ,Эдди Ко ,Джои Мэн ,Юнг Чак-лам,Эрик Ван ,Конг Шан,Рене Дай,Бобби Цанг
Описание: Чан Зан едет в Шанхай с его младшей сестрой в поисках новой жизни после их родной город разрушен группой бандитов. Он замечает, что Шанхай разделен на международных расчетов под контролем различных иностранных держав, таких как Великобритания и Япония. Кроме того, он отмечает, что сообщество боевых искусств "в Шанхае омрачен разобщенностью и различные школы проводят свои индивидуальные цели. Это отражает состояние Китая: китайцы индивидуалистической и часто участвуя в внутреннего конфликта, а не объединения, чтобы изгнать их общих врагов (властный иностранцев) и восстановить суверенитет своей страны. Фока Юн , основатель Цзин-му Школа , изо всех сил пытается убедить и влиять на другие школы, чтобы объединить под общим целью защиты Китая от иностранного вмешательства.
Сэмпл: http://multi-up.com/847356
Качество видео: DVDRip
Формат видео: AVI
Видео: DivX 5 720x540 29.97fps 1500kbps
Аудио: MPEG Audio Layer 3 48000Hz stereo 128kbps
MediaInfo
General
Complete name : C:\Новая папка\Fist of Fury .avi
Format : AVI
Format/Info : Audio Video Interleave
Format profile : OpenDML
File size : 1.39 GiB
Duration : 2h 0mn
Overall bit rate : 1 645 Kbps
Movie name : 2_Title3
Writing application : MEncoder 5.0
Video
ID : 0
Format : MPEG-4 Visual
Format profile : Simple@L1
Format settings, BVOP : No
Format settings, QPel : No
Format settings, GMC : No warppoints
Format settings, Matrix : Default (H.263)
Codec ID : DX50
Codec ID/Hint : DivX 5
Duration : 2h 0mn
Bit rate : 1 501 Kbps
Width : 720 pixels
Height : 540 pixels
Display aspect ratio : 4:3
Frame rate : 29.970 fps
Color space : YUV
Chroma subsampling : 4:2:0
Bit depth : 8 bits
Scan type : Progressive
Compression mode : Lossy
Bits/(Pixel*Frame) : 0.129
Stream size : 1.26 GiB (91%)
Writing library : Lavc54.79.100
Audio
ID : 1
Format : MPEG Audio
Format version : Version 1
Format profile : Layer 3
Codec ID : 55
Codec ID/Hint : MP3
Duration : 2h 0mn
Bit rate mode : Constant
Bit rate : 128 Kbps
Channel(s) : 2 channels
Sampling rate : 48.0 KHz
Compression mode : Lossy
Stream size : 110 MiB (8%)
Alignment : Aligned on interleaves
Interleave, duration : 24 ms (0.72 video frame)
Interleave, preload duration : 504 ms
Writing library : LAME3.99.5
Скриншот c названием фильма Скриншоты
Скачать

Скачать торрент! Кулак ярости/ Fist of Fury (Бенни Чан / Benny Chan) [1995, Гонконг, Боевые искусства, DVDRip] VO

Как скачивать? · Что такое торрент? · Рейтинг и ограничения

Сайт не распространяет и не хранит электронные версии произведений, а лишь предоставляет доступ к создаваемому пользователями каталогу ссылок на торрент-файлы, которые содержат только списки хеш-сумм

[Профиль] [ЛС]
Показать сообщения:    
Ответить на тему

Текущее время: Сегодня 20:37

Часовой пояс: GMT + 4



Вы не можете начинать темы
Вы не можете отвечать на сообщения
Вы не можете редактировать свои сообщения
Вы не можете удалять свои сообщения
Вы не можете голосовать в опросах
Вы не можете прикреплять файлы к сообщениям
Вы не можете скачивать файлы