Это мой парк / The Park Is Mine (Стивен Хиллиард Штерн / Steven Hilliard Stern) [1985, Канада, боевик, триллер, драма, WEB-DL 1080p] 2х AVO (Либергал, Володарский) + VO (Багичев) + Sub Eng + Original Eng

Ответить на тему
 
Автор Сообщение

user ®

Стаж: 7 лет 7 месяцев

Сообщений: 20008

Пост Пост: #1 от 07-Фев-2015 20:15

[Цитировать]

Это мой парк / The Park Is Mine
Страна: Канада
Студия: International Cinema, Ramble Film Productions
Жанр: боевик, триллер, драма
Год выпуска: 1985
Продолжительность: 01:41:33
Перевод: Авторский (одноголосый закадровый) Г. Либергал
Перевод 2: Авторский (одноголосый закадровый) Л. Володарский
Перевод 3: Одноголосый закадровый А. Багичев
Cубтитры: английские
Оригинальная аудиодорожка: английский
Режиссер: Стивен Хиллиард Штерн / Steven Hilliard Stern
В ролях: Томми Ли Джонс, Хелен Шейвер, Яфет Котто, Лоуренс Дэйн, Питер Дворски, Эрик Петерсон, Гэйл Гарнетт, Дэнис Симпсон, Луис Ди Бьянко
Описание: Вьетнамский ветеран кончает жизнь самоубийством, спрыгнув с крыши городской больницы. В оставленном письме он сообщает своему другу Митчу о плане захвата центрального парка перед днем ветеранов. Также он оставляет ему карту, на которой отмечены оружие и боеприпасы, разбросанные по всему парку. Митч решает воплотить неоконченный план умершего друга в жизнь…

Sample
Тип релиза: WEB-DL 1080p
Контейнер: MKV
Видео: MPEG4 AVC Video, H264, 16:9, 1920x1080, 23.976 fps, 5058 kbps
Аудио: Russian (AC3, 2 ch, 192 kbps, 16 bits, 48.0 KHz) - Г. Либергал
Аудио 2: Russian (AC3, 2 ch, 192 kbps, 16 bits, 48.0 KHz) - Л. Володарский
Аудио 3: Russian (AC3, 2 ch, 192 kbps, 16 bits, 48.0 KHz) - А. Багичев
Аудио 4: English (AC3, 2 ch, 192 kbps, 16 bits, 48.0 KHz) - оригинал
Формат субтитров: softsub (SRT)

MediaInfo
General
Unique ID : 229748323822753272781768016113438211820 (0xACD7EAEB42E069BC976692867E56BEEC)
Complete name : K:\The Park Is Mine 1985 WEB-DL 1080p.mkv
Format : Matroska
Format version : Version 4 / Version 2
File size : 4.22 GiB
Duration : 1h 41mn
Overall bit rate : 5 944 Kbps
Encoded date : UTC 2015-02-06 07:14:12
Writing application : mkvmerge v6.1.0 ('Old Devil') built on Mar 2 2013 14:32:37
Writing library : libebml v1.3.0 + libmatroska v1.4.0
Video
ID : 1
Format : AVC
Format/Info : Advanced Video Codec
Format profile : High@L4.0
Format settings, CABAC : Yes
Format settings, ReFrames : 4 frames
Codec ID : V_MPEG4/ISO/AVC
Duration : 1h 41mn
Bit rate : 5 058 Kbps
Width : 1 920 pixels
Height : 1 080 pixels
Display aspect ratio : 16:9
Frame rate mode : Constant
Frame rate : 23.976 fps
Color space : YUV
Chroma subsampling : 4:2:0
Bit depth : 8 bits
Scan type : Progressive
Bits/(Pixel*Frame) : 0.102
Stream size : 3.59 GiB (85%)
Language : English
Default : Yes
Forced : No
Color primaries : BT.709
Transfer characteristics : BT.709
Matrix coefficients : BT.709
Audio #1
ID : 2
Format : AC-3
Format/Info : Audio Coding 3
Mode extension : CM (complete main)
Format settings, Endianness : Big
Codec ID : A_AC3
Duration : 1h 41mn
Bit rate mode : Constant
Bit rate : 192 Kbps
Channel count : 2 channels
Channel positions : Front: L R
Sampling rate : 48.0 KHz
Bit depth : 16 bits
Compression mode : Lossy
Stream size : 139 MiB (3%)
Title : Г. Либергал
Language : Russian
Default : Yes
Forced : Yes
Audio #2
ID : 3
Format : AC-3
Format/Info : Audio Coding 3
Mode extension : CM (complete main)
Format settings, Endianness : Big
Codec ID : A_AC3
Duration : 1h 41mn
Bit rate mode : Constant
Bit rate : 192 Kbps
Channel count : 2 channels
Channel positions : Front: L R
Sampling rate : 48.0 KHz
Bit depth : 16 bits
Compression mode : Lossy
Stream size : 139 MiB (3%)
Title : Л. Володарский
Language : Russian
Default : No
Forced : No
Audio #3
ID : 4
Format : AC-3
Format/Info : Audio Coding 3
Mode extension : CM (complete main)
Format settings, Endianness : Big
Codec ID : A_AC3
Duration : 1h 41mn
Bit rate mode : Constant
Bit rate : 192 Kbps
Channel count : 2 channels
Channel positions : Front: L R
Sampling rate : 48.0 KHz
Bit depth : 16 bits
Compression mode : Lossy
Stream size : 139 MiB (3%)
Title : А. Багичев
Language : Russian
Default : No
Forced : No
Audio #4
ID : 5
Format : AC-3
Format/Info : Audio Coding 3
Mode extension : CM (complete main)
Format settings, Endianness : Big
Codec ID : A_AC3
Duration : 1h 41mn
Bit rate mode : Constant
Bit rate : 192 Kbps
Channel count : 2 channels
Channel positions : Front: L R
Sampling rate : 48.0 KHz
Bit depth : 16 bits
Compression mode : Lossy
Stream size : 139 MiB (3%)
Language : English
Default : No
Forced : No
Text
ID : 6
Format : UTF-8
Codec ID : S_TEXT/UTF8
Codec ID/Info : UTF-8 Plain Text
Language : English
Default : No
Forced : No
Menu
00:00:00.000 : en:Man Down / Main Titles
00:05:43.000 : en:Get Their Attention
00:11:45.000 : en:Finish The Job
00:17:02.000 : en:Veterans Day
00:22:06.000 : en:Empty
00:33:06.000 : en:Every Man Matters
00:39:41.000 : en:Snow Job
00:44:44.000 : en:Plea
00:49:56.000 : en:Trick
00:59:26.000 : en:Personal Message
01:04:20.000 : en:The Underdog
01:08:48.000 : en:Let The Man Speak
01:15:38.000 : en:Ridiculous
01:20:04.000 : en:Stick With Me
01:29:18.000 : en:Just Wait
01:38:24.000 : en:Man Of His Word / End Titles
Скриншоты
Скачать

Скачать торрент!

Как скачивать? · Что такое торрент? · Рейтинг и ограничения

Сайт не распространяет и не хранит электронные версии произведений, а лишь предоставляет доступ к создаваемому пользователями каталогу ссылок на торрент-файлы, которые содержат только списки хеш-сумм

[Профиль] [ЛС]
Показать сообщения:    
Ответить на тему

Текущее время: Сегодня 04:48

Часовой пояс: GMT + 4



Вы не можете начинать темы
Вы не можете отвечать на сообщения
Вы не можете редактировать свои сообщения
Вы не можете удалять свои сообщения
Вы не можете голосовать в опросах
Вы не можете прикреплять файлы к сообщениям
Вы не можете скачивать файлы