Хороший год / A Good Year (Ридли Скотт / Ridley Scott) [2006 г., США, Великобритания, драма, мелодрама, комедия, BDRip 720p] Dub + AVO (Иванов) + Ukr + Original Eng + Sub (Rus, Ukr, Eng)

Ответить на тему
 
Автор Сообщение

user ®

Стаж: 7 лет 7 месяцев

Сообщений: 20008

Пост Пост: #1 от 07-Фев-2015 15:54

[Цитировать]

-Хороший год / A Good Year«Начни жизнь заново» Страна: США, Великобритания
Студия: Fox 2000 Pictures, Scott Free Productions
Жанр: Драма, мелодрама, комедия
Год выпуска: 2006
Продолжительность: 01:57:32-Перевод 1: Профессиональный (полное дублирование), BD EUR
Перевод 2: Авторский (одноголосый, закадровый), М. Иванов
Оригинальная аудиодорожка: английская
Cубтитры: русские, украинские, английские
Режиссер: Ридли Скотт / Ridley Scott
В ролях: Рассел Кроу, Марион Котийяр, Альберт Финни, Фредди Хаймор, Том Холландер, Рейф Сполл, Арчи Панджаби, Ричард Койл, Эбби Корниш, Бен Райтон
Описание: Воротила Лондонской фондовой биржи, безумно умный, удачливый менеджер и по совместительству большой зануда наследует винодельню в Провансе. По прибытии во Францию он обнаруживает, что, кроме него, есть еще люди, претендующие на его законную собственность. Цепочка невероятных событий и открытий заставят его по-новому взглянуть на истинные ценности этого мира…-
Сэмпл: скачать-Релиз от -
Автор рипа: Elheym
Качество: BDRip 720p (источник: / Blu-ray EUR / 1080p)
Контейнер: MKV
Видео: 1280x546 (2.35:1), 23.976 fps, MPEG-4 AVC, ~9300 kbps avg, 0.555 bit/pixel
Аудио #1: Русский: DTS, 5.1, 48 kHz, ~768 Кбит/с | Профессиональный (полное дублирование), BD EUR |
Аудио #2: Русский: АС3, 5.1, 48 kHz, ~384 Кбит/с | Авторский (одноголосый, закадровый), М. Иванов |
Аудио #3: Украинский: АС3, 2.0, 48 kHz, ~192 Кбит/с | Профессиональный (двухголосый, закадровый), ТЕТ |
Аудио #4: Английский: DTS, 5.1, 48 kHz, ~1509 Кбит/с | Оригинал |
Субтитры: Русские (полные, форсированные), Украинские (полные), Английские (полные, полные SDH, полные SDH цветные)
Главы: Присутствуют, сохранены оригинальные
MediaInfo
Уникальный идентификатор : 190329229044015883056460678793033729756 (0x8F30137E9E6E9067B859EE60F514C6DC)
Полное имя : A.Good.Year.2006.720p.BluRay.2xRus.Ukr.Eng.-HQCLUB.mkv
Формат : Matroska
Версия формата : Version 2
Размер файла : 9,98 Гбайт
Продолжительность : 1 ч. 57 м.
Общий поток : 12,2 Мбит/сек
Дата кодирования : UTC 2015-02-05 18:04:17
Программа кодирования : mkvmerge v5.2.0 ('I can't explain') built on Dec 18 2011 18:12:03
Библиотека кодирования : libebml v1.2.3 + libmatroska v1.3.0
Видео
Идентификатор : 1
Формат : AVC
Формат/Информация : Advanced Video Codec
Профиль формата : High@L4.1
Параметр CABAC формата : Да
Параметр ReFrames формата : 7 кадров
Идентификатор кодека : V_MPEG4/ISO/AVC
Продолжительность : 1 ч. 57 м.
Битрейт : 9300 Кбит/сек
Ширина : 1280 пикселей
Высота : 546 пикселей
Соотношение сторон : 2,35:1
Режим частоты кадров : Постоянный
Частота кадров : 23,976 кадра/сек
Цветовое пространство : YUV
Субдискретизация насыщенности : 4:2:0
Битовая глубина : 8 бит
Тип развёртки : Прогрессивная
Бит/(Пиксели*Кадры) : 0.555
Размер потока : 7,44 Гбайт (75%)
Заголовок : Хороший год / A Good Year (2006) BDRip 720p by HQCLUB [Elheym]
Библиотека кодирования : x264 core 144 r2525kMod 40bb568
Настройки программы : cabac=1 / ref=8 / deblock=1:-3:-2 / analyse=0x3:0x113 / me=umh / subme=11 / psy=1 / fade_compensate=0.00 / psy_rd=1.00:0.00 / mixed_ref=1 / me_range=32 / chroma_me=1 / trellis=2 / 8x8dct=1 / cqm=0 / deadzone=21,11 / fast_pskip=1 / chroma_qp_offset=-4 / threads=6 / lookahead_threads=1 / sliced_threads=0 / nr=0 / decimate=1 / interlaced=0 / bluray_compat=0 / constrained_intra=0 / fgo=0 / bframes=13 / b_pyramid=1 / b_adapt=2 / b_bias=0 / direct=3 / weightb=1 / open_gop=0 / weightp=2 / keyint=230 / keyint_min=23 / scenecut=40 / intra_refresh=0 / rc_lookahead=40 / rc=2pass / mbtree=0 / bitrate=9300 / ratetol=1.4 / qcomp=0.70 / qpmin=0 / qpmax=69 / qpstep=4 / cplxblur=20.0 / qblur=0.5 / vbv_maxrate=50000 / vbv_bufsize=62500 / nal_hrd=none / filler=0 / ip_ratio=1.40 / pb_ratio=1.30 / aq=3:0.90 / zones=162383,169075,b=0.21
Язык : English
Default : Да
Forced : Нет
Аудио #1
Идентификатор : 2
Формат : DTS
Формат/Информация : Digital Theater Systems
Режим : 16
Параметр Endianness формата : Big
Идентификатор кодека : A_DTS
Продолжительность : 1 ч. 57 м.
Вид битрейта : Постоянный
Битрейт : 768 Кбит/сек
Каналы : 6 каналов
Расположение каналов : Front: L C R, Side: L R, LFE
Частота : 48,0 КГц
Битовая глубина : 24 бит
Метод сжатия : С потерями
Размер потока : 646 Мбайт (6%)
Заголовок : DTS 5.1 @ 768 kbps - Dub, BD EUR
Язык : Russian
Default : Нет
Forced : Нет
Аудио #2
Идентификатор : 3
Формат : AC-3
Формат/Информация : Audio Coding 3
Расширение режима : CM (complete main)
Параметр Endianness формата : Big
Идентификатор кодека : A_AC3
Продолжительность : 1 ч. 57 м.
Вид битрейта : Постоянный
Битрейт : 384 Кбит/сек
Каналы : 6 каналов
Расположение каналов : Front: L C R, Side: L R, LFE
Частота : 48,0 КГц
Битовая глубина : 16 бит
Метод сжатия : С потерями
Размер потока : 323 Мбайт (3%)
Заголовок : АС3 5.1 @ 384 kbps - AVO, Ivanov
Язык : Russian
Default : Нет
Forced : Нет
Аудио #3
Идентификатор : 4
Формат : AC-3
Формат/Информация : Audio Coding 3
Расширение режима : CM (complete main)
Параметр Endianness формата : Big
Идентификатор кодека : A_AC3
Продолжительность : 1 ч. 57 м.
Вид битрейта : Постоянный
Битрейт : 192 Кбит/сек
Каналы : 2 канала
Расположение каналов : Front: L R
Частота : 48,0 КГц
Битовая глубина : 16 бит
Метод сжатия : С потерями
Размер потока : 161 Мбайт (2%)
Заголовок : АС3 2.0 @ 192 kbps - DVO, TET
Язык : Ukrainian
Default : Нет
Forced : Нет
Аудио #4
Идентификатор : 5
Формат : DTS
Формат/Информация : Digital Theater Systems
Режим : 16
Параметр Endianness формата : Big
Идентификатор кодека : A_DTS
Продолжительность : 1 ч. 57 м.
Вид битрейта : Постоянный
Битрейт : 1509 Кбит/сек
Каналы : 6 каналов
Расположение каналов : Front: L C R, Side: L R, LFE
Частота : 48,0 КГц
Битовая глубина : 24 бит
Метод сжатия : С потерями
Размер потока : 1,24 Гбайт (12%)
Заголовок : DTS 5.1 @ 1509 kbps - Original
Язык : English
Default : Нет
Forced : Нет
Текст #1
Идентификатор : 6
Формат : UTF-8
Идентификатор кодека : S_TEXT/UTF8
Идентификатор кодека/Информация : UTF-8 Plain Text
Заголовок : Full
Язык : Russian
Default : Нет
Forced : Нет
Текст #2
Идентификатор : 7
Формат : UTF-8
Идентификатор кодека : S_TEXT/UTF8
Идентификатор кодека/Информация : UTF-8 Plain Text
Заголовок : Forced
Язык : Russian
Default : Да
Forced : Нет
Текст #3
Идентификатор : 8
Формат : UTF-8
Идентификатор кодека : S_TEXT/UTF8
Идентификатор кодека/Информация : UTF-8 Plain Text
Заголовок : Full
Язык : Ukrainian
Default : Нет
Forced : Нет
Текст #4
Идентификатор : 9
Формат : UTF-8
Идентификатор кодека : S_TEXT/UTF8
Идентификатор кодека/Информация : UTF-8 Plain Text
Заголовок : Full
Язык : English
Default : Нет
Forced : Нет
Текст #5
Идентификатор : 10
Формат : UTF-8
Идентификатор кодека : S_TEXT/UTF8
Идентификатор кодека/Информация : UTF-8 Plain Text
Заголовок : Full SDH
Язык : English
Default : Нет
Forced : Нет
Текст #6
Идентификатор : 11
Формат : UTF-8
Идентификатор кодека : S_TEXT/UTF8
Идентификатор кодека/Информация : UTF-8 Plain Text
Заголовок : Full SDH Colored
Язык : English
Default : Нет
Forced : Нет
Меню
00:00:00.000 : :Chapter 01
00:04:26.349 : :Chapter 03
00:07:51.179 : :Chapter 05
00:13:02.448 : :Chapter 07
00:16:14.264 : :Chapter 09
00:23:19.064 : :Chapter 11
00:28:07.310 : :Chapter 13
00:35:28.543 : :Chapter 15
00:39:23.444 : :Chapter 17
00:43:26.895 : :Chapter 19
00:48:38.915 : :Chapter 21
00:52:35.026 : :Chapter 23
00:56:42.357 : :Chapter 25
01:01:45.201 : :Chapter 27
01:05:56.744 : :Chapter 29
01:14:02.145 : :Chapter 31
01:20:08.386 : :Chapter 33
01:25:28.957 : :Chapter 35
01:31:11.090 : :Chapter 37
01:35:20.130 : :Chapter 39
01:37:06.236 : :Chapter 41
01:38:53.093 : :Chapter 43
01:44:08.784 : :Chapter 45
01:51:28.348 : :Chapter 47
01:57:31.669 : :Chapter 48
x264 log
x264 [info]: frame I:1711 Avg QP:12.50 size:170759
x264 [info]: frame P:37684 Avg QP:15.38 size: 79601
x264 [info]: frame B:129681 Avg QP:16.77 size: 37794
x264 [info]: consecutive B-frames: 3.1% 5.3% 6.8% 15.0% 16.5% 40.0% 5.5% 1.8% 1.5% 1.3% 0.9% 0.6% 0.8% 0.8%
x264 [info]: ref P L0: 57.1% 13.3% 14.1% 6.3% 4.1% 2.8% 2.1% 0.2% 0.0%
x264 [info]: ref B L0: 79.8% 10.3% 5.0% 2.5% 1.6% 0.8%
x264 [info]: ref B L1: 92.3% 7.7%
Скриншоты Цитата:
В исходном диске присутствовал английский хардсаб на французскую речь, соответственно, в рипе он также есть.
Синхронизация русской авторской и украинской дорожек - Elheym.
Скачать

Скачать торрент!

Как скачивать? · Что такое торрент? · Рейтинг и ограничения

Сайт не распространяет и не хранит электронные версии произведений, а лишь предоставляет доступ к создаваемому пользователями каталогу ссылок на торрент-файлы, которые содержат только списки хеш-сумм

[Профиль] [ЛС]
Показать сообщения:    
Ответить на тему

Текущее время: Сегодня 07:52

Часовой пояс: GMT + 4



Вы не можете начинать темы
Вы не можете отвечать на сообщения
Вы не можете редактировать свои сообщения
Вы не можете удалять свои сообщения
Вы не можете голосовать в опросах
Вы не можете прикреплять файлы к сообщениям
Вы не можете скачивать файлы