Офицер и джентльмен / An Officer and a Gentleman (Тейлор Хэкфорд / Taylor Hackford) [1982, США, драма, мелодрама, BDRip 720p] MVO + 4xAVO (Живов, Михалев, Гаврилов, Горчаков) + Original Eng + subs (Rus, Eng, Eng SDH)

Ответить на тему
 
Автор Сообщение

user ®

Стаж: 7 лет 7 месяцев

Сообщений: 20008

Пост Пост: #1 от 07-Фев-2015 15:54

[Цитировать]

Офицер и джентльмен / An Officer and a Gentleman- Год выпуска: 1982
Выпущено: США
Жанр: драма, мелодрама
Продолжительность: 02:04:00
Перевод: Профессиональный (многоголосый, закадровый)
+ Авторский одноголосый Ю.Живов
+ Авторский одноголосый А.Михалев
+ Авторский одноголосый А.Гаврилов
+ Авторский одноголосый В.Горчаков
Оригинальная звуковая дорожка: English
Субтитры: Russian, English, English (SDH)-Режиссер: Тейлор Хэкфорд / Taylor Hackford
В ролях: Ричард Гир, Дебра Уингер, Дэвид Кит, Роберт Лоджа, Лиза Блаунт, Лиза Айлбакер, Луис Госсет мл., Тони Плана, Гарольд Сильвестр, Дэвид Карузо
О фильме: Зак Мэйо поступает в военное училище, готовящее пилотов морской авиации. Но даже в страшных снах не могло привидеться ему, через какой ад придется пройти, когда за него возьмется жестокий инструктор Фоули.После трех месяцев невыносимой муштры Зак вполне прочувствовал, что такое армейская дисциплина, и, несмотря на все предупреждения о коварстве местных девушек, якобы только и мечтающих, как бы заполучить себе в мужья летчика, Зак влюбляется в одну из них. Но, несмотря на все препятствия, герой фильма все же станет превосходным офицером и обретет настоящую любовь.-DON!
Релиз:
Формат: MKV
Видео: 1280x720 at 23.976 fps, x264@L4.1, 2pass, ~11262 kbps avg
Аудио #1: Russian: 48 kHz, AC3, 3/2 (L,C,R,l,r) + LFE ch, ~640.00 kbps avg |Одноголосый закадровый, Ю.Живов|
Аудио #2: Russian: 48 kHz, AC3, 2/0 (L,R) ch, ~192.00 kbps avg |Одноголосый закадровый, А.Михалев|
Аудио #3: Russian: 48 kHz, AC3, 2/0 (L,R) ch, ~192.00 kbps avg |Одноголосый закадровый, А.Гаврилов|
Аудио #4: Russian: 48 kHz, AC3, 2/0 (L,R) ch, ~192.00 kbps avg |Одноголосый закадровый, В.Горчаков|
Аудио #5: Russian: 48 kHz, AC3, 2/0 (L,R) ch, ~192.00 kbps avg |Многоголосый закадровый|
Аудио #6: English: 48 kHz, AC3, 3/2 (L,C,R,l,r) + LFE ch, ~640.00 kbps avg
Аудио #7: English: 48 kHz, AC3, 2/0 (L,R) ch, ~192.00 kbps avg |Commentary by Taylor Hackford|
Семпл-Скриншоты
-
mInfo
Формат : Matroska
Версия формата : Version 4 / Version 2
Размер файла : 11,7 Гбайт
Продолжительность : 2 ч. 4 м.
Общий поток : 13,5 Мбит/сек
Дата кодирования : UTC 2013-09-23 21:08:37
Программа кодирования : mkvmerge v6.2.0 ('Promised Land') built on Apr 28 2013 12:22:01
Библиотека кодирования : libebml v1.3.0 + libmatroska v1.4.0
Видео
Идентификатор : 1
Формат : AVC
Формат/Информация : Advanced Video Codec
Профиль формата : High@L4.1
Параметр CABAC формата : Да
Параметр ReFrames формата : 9 кадров
Идентификатор кодека : V_MPEG4/ISO/AVC
Продолжительность : 2 ч. 4 м.
Битрейт : 11,3 Мбит/сек
Ширина : 1280 пикселей
Высота : 720 пикселей
Соотношение сторон : 16:9
Режим частоты кадров : Постоянный
Частота кадров : 23,976 кадра/сек
Цветовое пространство : YUV
Субдискретизация насыщенности : 4:2:0
Битовая глубина : 8 бит
Тип развёртки : Прогрессивная
Бит/(Пиксели*Кадры) : 0.510
Размер потока : 9,55 Гбайт (81%)
Заголовок : An.Officer.and.a.Gentleman.1982.720p.BluRay.DD5.1.x264-DON
Библиотека кодирования : x264 core 120 r2164+656 2ff844c
Настройки программы : cabac=1 / ref=9 / deblock=1:-3:-3 / analyse=0x3:0x133 / me=umh / subme=10 / psy=1 / fade_compensate=0.00 / psy_rd=1.00:0.00 / mixed_ref=1 / me_range=32 / chroma_me=1 / trellis=2 / 8x8dct=1 / cqm=0 / deadzone=21,11 / fast_pskip=0 / chroma_qp_offset=-2 / threads=3 / sliced_threads=0 / nr=0 / decimate=0 / interlaced=0 / bluray_compat=0 / constrained_intra=0 / fgo=0 / bframes=9 / b_pyramid=2 / b_adapt=2 / b_bias=0 / direct=3 / weightb=1 / open_gop=0 / weightp=2 / keyint=250 / keyint_min=23 / scenecut=40 / intra_refresh=0 / rc=2pass / mbtree=0 / bitrate=11262 / ratetol=1.0 / qcomp=0.60 / qpmin=0 / qpmax=69 / qpstep=4 / cplxblur=20.0 / qblur=0.5 / ip_ratio=1.35 / pb_ratio=1.25 / aq=3:0.80
Язык : English
Default : Да
Forced : Нет
Аудио #1
Идентификатор : 2
Формат : AC-3
Формат/Информация : Audio Coding 3
Расширение режима : CM (complete main)
Параметр Endianness формата : Big
Идентификатор кодека : A_AC3
Продолжительность : 2 ч. 4 м.
Вид битрейта : Постоянный
Битрейт : 640 Кбит/сек
Каналы : 6 каналов
Расположение каналов : Front: L C R, Side: L R, LFE
Частота : 48,0 КГц
Битовая глубина : 16 бит
Метод сжатия : С потерями
Размер потока : 569 Мбайт (5%)
Заголовок : AC3 6 ch 640 kbps Юрий Живов
Язык : Russian
Default : Да
Forced : Нет
Аудио #2
Идентификатор : 3
Формат : AC-3
Формат/Информация : Audio Coding 3
Расширение режима : CM (complete main)
Параметр Endianness формата : Big
Идентификатор кодека : A_AC3
Продолжительность : 2 ч. 4 м.
Вид битрейта : Постоянный
Битрейт : 192 Кбит/сек
Каналы : 2 канала
Расположение каналов : Front: L R
Частота : 48,0 КГц
Битовая глубина : 16 бит
Метод сжатия : С потерями
Размер потока : 171 Мбайт (1%)
Заголовок : AC3 2 ch 192 kbps Алексей Михалев
Язык : Russian
Default : Нет
Forced : Нет
Аудио #3
Идентификатор : 4
Формат : AC-3
Формат/Информация : Audio Coding 3
Расширение режима : CM (complete main)
Параметр Endianness формата : Big
Идентификатор кодека : A_AC3
Продолжительность : 2 ч. 4 м.
Вид битрейта : Постоянный
Битрейт : 192 Кбит/сек
Каналы : 2 канала
Расположение каналов : Front: L R
Частота : 48,0 КГц
Битовая глубина : 16 бит
Метод сжатия : С потерями
Размер потока : 171 Мбайт (1%)
Заголовок : AC3 2 ch 192 kbps Андрей Гаврилов
Язык : Russian
Default : Нет
Forced : Нет
Аудио #4
Идентификатор : 5
Формат : AC-3
Формат/Информация : Audio Coding 3
Расширение режима : CM (complete main)
Параметр Endianness формата : Big
Идентификатор кодека : A_AC3
Продолжительность : 2 ч. 4 м.
Вид битрейта : Постоянный
Битрейт : 192 Кбит/сек
Каналы : 2 канала
Расположение каналов : Front: L R
Частота : 48,0 КГц
Битовая глубина : 16 бит
Метод сжатия : С потерями
Размер потока : 171 Мбайт (1%)
Заголовок : AC3 2 ch 192 kbps Василий горчаков
Язык : Russian
Default : Нет
Forced : Нет
Аудио #5
Идентификатор : 6
Формат : AC-3
Формат/Информация : Audio Coding 3
Расширение режима : CM (complete main)
Параметр Endianness формата : Big
Идентификатор кодека : A_AC3
Продолжительность : 2 ч. 4 м.
Вид битрейта : Постоянный
Битрейт : 192 Кбит/сек
Каналы : 2 канала
Расположение каналов : Front: L R
Частота : 48,0 КГц
Битовая глубина : 16 бит
Метод сжатия : С потерями
Размер потока : 171 Мбайт (1%)
Заголовок : AC3 2 ch 192 kbps MVO
Язык : Russian
Default : Нет
Forced : Нет
Аудио #6
Идентификатор : 7
Формат : AC-3
Формат/Информация : Audio Coding 3
Расширение режима : CM (complete main)
Параметр Endianness формата : Big
Идентификатор кодека : A_AC3
Продолжительность : 2 ч. 4 м.
Вид битрейта : Постоянный
Битрейт : 640 Кбит/сек
Каналы : 6 каналов
Расположение каналов : Front: L C R, Side: L R, LFE
Частота : 48,0 КГц
Битовая глубина : 16 бит
Метод сжатия : С потерями
Размер потока : 569 Мбайт (5%)
Заголовок : AC3 6 ch 640 kbps
Язык : English
Default : Нет
Forced : Нет
Аудио #7
Идентификатор : 8
Формат : AC-3
Формат/Информация : Audio Coding 3
Расширение режима : CM (complete main)
Параметр Endianness формата : Big
Идентификатор кодека : A_AC3
Продолжительность : 2 ч. 4 м.
Вид битрейта : Постоянный
Битрейт : 192 Кбит/сек
Каналы : 2 канала
Расположение каналов : Front: L R
Частота : 48,0 КГц
Битовая глубина : 16 бит
Метод сжатия : С потерями
Размер потока : 171 Мбайт (1%)
Заголовок : Commentary by Taylor Hackford
Язык : English
Default : Нет
Forced : Нет
Текст #1
Идентификатор : 9
Формат : UTF-8
Идентификатор кодека : S_TEXT/UTF8
Идентификатор кодека/Информация : UTF-8 Plain Text
Язык : Russian
Default : Нет
Forced : Нет
Текст #2
Идентификатор : 10
Формат : UTF-8
Идентификатор кодека : S_TEXT/UTF8
Идентификатор кодека/Информация : UTF-8 Plain Text
Язык : English
Default : Нет
Forced : Нет
Текст #3
Идентификатор : 11
Формат : UTF-8
Идентификатор кодека : S_TEXT/UTF8
Идентификатор кодека/Информация : UTF-8 Plain Text
Заголовок : SDH
Язык : English
Default : Нет
Forced : Нет
Меню #1
00:00:00.000 : en:00:00:00.000
00:09:01.791 : en:00:09:01.791
00:15:51.784 : en:00:15:51.784
00:21:15.566 : en:00:21:15.566
00:29:42.280 : en:00:29:42.280
00:38:29.641 : en:00:38:29.641
00:49:59.997 : en:00:49:59.997
00:56:12.286 : en:00:56:12.286
01:05:24.379 : en:01:05:24.379
01:17:03.118 : en:01:17:03.118
01:28:15.290 : en:01:28:15.290
01:30:52.280 : en:01:30:52.280
01:48:31.755 : en:01:48:31.755
01:54:55.514 : en:01:54:55.514
01:59:41.716 : en:01:59:41.716
Меню #2
00:00:00.000 : :00:00:00.000
00:09:02.834 : :00:09:02.834
00:15:52.827 : :00:15:52.827
00:21:16.609 : :00:21:16.609
00:29:43.323 : :00:29:43.323
00:38:30.683 : :00:38:30.683
00:50:01.040 : :00:50:01.040
00:56:13.328 : :00:56:13.328
01:05:25.463 : :01:05:25.463
01:17:04.161 : :01:17:04.161
01:28:16.333 : :01:28:16.333
01:30:51.154 : :01:30:51.154
01:48:32.798 : :01:48:32.798
01:54:56.556 : :01:54:56.556
01:59:42.759 : :01:59:42.759

-
Цитата:
* Сохранены оригинальные чаптеры как на Blu-Ray.
* Дорога номер 1 получена наложением чистого голоса на центр декодированного DTS-HD MA оригинала.
* За исходные дороги спасибо suzaku, разве что дороги Гаврилова и Горчакова дополнительно подчищены от шумов.
Скачать

Скачать торрент!

Как скачивать? · Что такое торрент? · Рейтинг и ограничения

Сайт не распространяет и не хранит электронные версии произведений, а лишь предоставляет доступ к создаваемому пользователями каталогу ссылок на торрент-файлы, которые содержат только списки хеш-сумм

[Профиль] [ЛС]
Показать сообщения:    
Ответить на тему

Текущее время: Сегодня 06:29

Часовой пояс: GMT + 4



Вы не можете начинать темы
Вы не можете отвечать на сообщения
Вы не можете редактировать свои сообщения
Вы не можете удалять свои сообщения
Вы не можете голосовать в опросах
Вы не можете прикреплять файлы к сообщениям
Вы не можете скачивать файлы