Мажестик / The Majestic (Фрэнк Дарабонт / Frank Darabont) [2001 г., США, Австралия, драма, BDRip 1080p] Dub + MVO (ТК Россия) + DVO (Визгунов & Нина) + AVO (Визгунов) + Ukr (ТакТреба Продакшн) + Original Eng + Sub (Rus, Ukr, Eng)

Ответить на тему
 
Автор Сообщение

user ®

Стаж: 7 лет 7 месяцев

Сообщений: 20008

Пост Пост: #1 от 06-Фев-2015 18:24

[Цитировать]

Мажестик / The Majestic
«Sometimes your life comes into focus one frame at a time»
Страна: США, Австралия
Жанр: драма
Год выпуска: 2001
Продолжительность: 02:32:45
Перевод 1: Профессиональный (дублированный) BD EUR
Перевод 2: Профессиональный (многоголосый закадровый) ВГТРК / ТК "Россия"
Перевод 3: Профессиональный (двухголосый закадровый) Сергей Визгунов и Нина
Перевод 4: Авторский (одноголосый закадровый) Сергей Визгунов
Cубтитры: русские (Full), украинские (Full), английские (Full), английские (Full SDH), английские (Full SDH Colored)
Оригинальная аудиодорожка: английский
Режиссер: Фрэнк Дарабонт
В ролях: Джим Керри , Лори Холден , Мартин Ландау , Хэл Холбрук , Джеффри ДеМанн , Боб Бэлабан , Брент Бриско , Рон Рифкин , Джерри Блэк , Дэвид Огден Стайерз , Джеймс Уитмор , Сьюзэн Уиллис
Описание: История о человеке, ищущем самого себя. Питер, голливудский сценарист, случайно попадает в маленький городок Лоусон в Калифорнии: после автомобильной аварии он полностью теряет память.
Его принимают за пропавшего без вести героя Второй мировой. Питер, который сам поверил в это, берется за восстановление заброшенного городского кинотеатра. Невеста героя, которая ждала его несколько лет, также не замечает, что рядом с ней - двойник. Прекрасная жизнь основана на прекрасном обмане. Но правда, рано или поздно, откроется...

Качество: BDRip 1080p
Контейнер: MKV
Видео: MPEG-4 AVC, 1920x1080, (16:9), 12670 Кбит/сек, 23,976 кадр/сек
Аудио №1: русский / AC3 / 5.1 / 48 kHz / 640 kbps / |Дублированный, BD EUR|
Аудио №2: русский / AC3 / 2.0 / 48 kHz / 192 kbps / |Профессиональный (многоголосый, закадровый) ВГТРК / ТК "Россия"|
Аудио №3: русский / AC3 / 2.0 / 48 kHz / 192 kbps / |Профессиональный (двухголосый, закадровый) Сергей Визгунов и Нина|
Аудио №4: русский / AC3 / 2.0 / 48 kHz / 224 kbps / |Авторский (одноголосый, закадровый) Сергей Визгунов|
Аудио №5: украинский / AC3 / 5.1 / 48 kHz / 384 kbps / |Профессиональный (двухголосый, закадровый) украинский |ТакТреба Продакшн||
Аудио №6: английский / DTS / 5.1 / 48 kHz / 1510 kbps /
Формат субтитров: softsub (SRT)
Автор рипа: _denis_100
Сообщество: NNNB
MediaInfo
Format : Matroska
Format version : Version 2
File size : 16.9 GiB
Duration : 2h 32mn
Overall bit rate : 15.8 Mbps
Movie name : Mazhestik.(2001).BDRip.1080p.[denis100]
Encoded date : UTC 2015-01-31 09:17:39
Writing application : mkvmerge v5.8.0 ('No Sleep / Pillow') built on Sep 2 2012 15:37:04
Writing library : libebml v1.2.3 + libmatroska v1.3.0
Video
ID : 1
Format : AVC
Format/Info : Advanced Video Codec
Format profile : High@L4.1
Format settings, CABAC : Yes
Format settings, ReFrames : 4 frames
Codec ID : V_MPEG4/ISO/AVC
Duration : 2h 32mn
Bit rate : 12.7 Mbps
Width : 1 920 pixels
Height : 1 080 pixels
Display aspect ratio : 16:9
Frame rate mode : Constant
Frame rate : 23.976 fps
Color space : YUV
Chroma subsampling : 4:2:0
Bit depth : 8 bits
Scan type : Progressive
Bits/(Pixel*Frame) : 0.255
Stream size : 13.2 GiB (78%)
Title : Mazhestik.(2001).BDRip.1080p.[denis100]
Writing library : x264 core 144 r2525 40bb568
Encoding settings : cabac=1 / ref=4 / deblock=1:-3:-3 / analyse=0x3:0x133 / me=umh / subme=11 / psy=1 / psy_rd=1.00:0.10 / mixed_ref=1 / me_range=48 / chroma_me=1 / trellis=2 / 8x8dct=1 / cqm=0 / deadzone=21,11 / fast_pskip=0 / chroma_qp_offset=-3 / threads=6 / lookahead_threads=1 / sliced_threads=0 / nr=0 / decimate=1 / interlaced=0 / bluray_compat=0 / constrained_intra=0 / bframes=9 / b_pyramid=2 / b_adapt=2 / b_bias=0 / direct=3 / weightb=1 / open_gop=0 / weightp=2 / keyint=240 / keyint_min=23 / scenecut=40 / intra_refresh=0 / rc=2pass / mbtree=0 / bitrate=12670 / ratetol=1.0 / qcomp=0.60 / qpmin=0 / qpmax=69 / qpstep=4 / cplxblur=20.0 / qblur=0.5 / ip_ratio=1.40 / pb_ratio=1.30 / aq=1:1.00
Language : English
Default : Yes
Forced : No
Audio #1
ID : 2
Format : AC-3
Format/Info : Audio Coding 3
Mode extension : CM (complete main)
Format settings, Endianness : Big
Codec ID : A_AC3
Duration : 2h 32mn
Bit rate mode : Constant
Bit rate : 640 Kbps
Channel(s) : 6 channels
Channel positions : Front: L C R, Side: L R, LFE
Sampling rate : 48.0 KHz
Bit depth : 16 bits
Compression mode : Lossy
Stream size : 699 MiB (4%)
Title : Дублированный, BD EUR
Language : Russian
Default : Yes
Forced : No
Audio #2
ID : 3
Format : AC-3
Format/Info : Audio Coding 3
Mode extension : CM (complete main)
Format settings, Endianness : Big
Codec ID : A_AC3
Duration : 2h 32mn
Bit rate mode : Constant
Bit rate : 192 Kbps
Channel(s) : 2 channels
Channel positions : Front: L R
Sampling rate : 48.0 KHz
Bit depth : 16 bits
Compression mode : Lossy
Stream size : 210 MiB (1%)
Title : Профессиональный (многоголосый, закадровый) ВГТРК / ТК "Россия"
Language : Russian
Default : No
Forced : No
Audio #3
ID : 4
Format : AC-3
Format/Info : Audio Coding 3
Mode extension : CM (complete main)
Format settings, Endianness : Big
Codec ID : A_AC3
Duration : 2h 32mn
Bit rate mode : Constant
Bit rate : 192 Kbps
Channel(s) : 2 channels
Channel positions : Front: L R
Sampling rate : 48.0 KHz
Bit depth : 16 bits
Compression mode : Lossy
Stream size : 210 MiB (1%)
Title : Профессиональный (двухголосый, закадровый) Сергей Визгунов и Нина
Language : Russian
Default : No
Forced : No
Audio #4
ID : 5
Format : AC-3
Format/Info : Audio Coding 3
Mode extension : CM (complete main)
Format settings, Endianness : Big
Codec ID : A_AC3
Duration : 2h 32mn
Bit rate mode : Constant
Bit rate : 224 Kbps
Channel(s) : 2 channels
Channel positions : Front: L R
Sampling rate : 48.0 KHz
Bit depth : 16 bits
Compression mode : Lossy
Stream size : 245 MiB (1%)
Title : Авторский (одноголосый, закадровый) Сергей Визгунов
Language : Russian
Default : No
Forced : No
Audio #5
ID : 6
Format : AC-3
Format/Info : Audio Coding 3
Mode extension : CM (complete main)
Format settings, Endianness : Big
Codec ID : A_AC3
Duration : 2h 32mn
Bit rate mode : Constant
Bit rate : 384 Kbps
Channel(s) : 6 channels
Channel positions : Front: L C R, Side: L R, LFE
Sampling rate : 48.0 KHz
Bit depth : 16 bits
Compression mode : Lossy
Stream size : 420 MiB (2%)
Title : Профессиональный (двухголосый, закадровый) украинский |ТакТреба Продакшн|
Language : Ukrainian
Default : No
Forced : No
Audio #6
ID : 7
Format : DTS
Format/Info : Digital Theater Systems
Mode : 16
Format settings, Endianness : Big
Codec ID : A_DTS
Duration : 2h 32mn
Bit rate mode : Constant
Bit rate : 1 509 Kbps
Channel(s) : 6 channels
Channel positions : Front: L C R, Side: L R, LFE
Sampling rate : 48.0 KHz
Bit depth : 24 bits
Compression mode : Lossy
Stream size : 1.61 GiB (10%)
Title : English
Language : English
Default : No
Forced : No
Text #1
ID : 8
Format : UTF-8
Codec ID : S_TEXT/UTF8
Codec ID/Info : UTF-8 Plain Text
Title : Full
Language : Russian
Default : No
Forced : No
Text #2
ID : 9
Format : UTF-8
Codec ID : S_TEXT/UTF8
Codec ID/Info : UTF-8 Plain Text
Title : Full
Language : Ukrainian
Default : No
Forced : No
Text #3
ID : 10
Format : UTF-8
Codec ID : S_TEXT/UTF8
Codec ID/Info : UTF-8 Plain Text
Title : Full
Language : English
Default : No
Forced : No
Text #4
ID : 11
Format : UTF-8
Codec ID : S_TEXT/UTF8
Codec ID/Info : UTF-8 Plain Text
Title : Full SDH
Language : English
Default : No
Forced : No
Text #5
ID : 12
Format : UTF-8
Codec ID : S_TEXT/UTF8
Codec ID/Info : UTF-8 Plain Text
Title : Full SDH Colored
Language : English
Default : No
Forced : No
Menu
00:00:00.000 : :Chapter 01
00:05:06.347 : :Chapter 02
00:07:40.543 : :Chapter 03
00:10:38.554 : :Chapter 04
00:13:35.606 : :Chapter 05
00:18:13.091 : :Chapter 06
00:24:09.656 : :Chapter 07
00:28:19.948 : :Chapter 08
00:34:08.337 : :Chapter 09
00:38:00.319 : :Chapter 10
00:41:30.446 : :Chapter 11
00:46:29.244 : :Chapter 12
00:49:46.692 : :Chapter 13
00:54:24.427 : :Chapter 14
00:59:01.537 : :Chapter 15
01:03:57.917 : :Chapter 16
01:07:29.628 : :Chapter 17
01:12:11.118 : :Chapter 18
01:15:30.526 : :Chapter 19
01:18:08.100 : :Chapter 20
01:24:06.958 : :Chapter 21
01:26:23.761 : :Chapter 22
01:30:17.537 : :Chapter 23
01:32:52.858 : :Chapter 24
01:36:12.183 : :Chapter 25
01:42:54.126 : :Chapter 26
01:46:50.654 : :Chapter 27
01:50:11.646 : :Chapter 28
01:53:07.530 : :Chapter 29
01:55:54.197 : :Chapter 30
01:59:42.091 : :Chapter 31
02:03:13.761 : :Chapter 32
02:07:04.992 : :Chapter 33
02:17:10.889 : :Chapter 34
02:20:20.161 : :Chapter 35
02:21:56.925 : :Chapter 36
02:27:34.262 : :Chapter 37
02:32:43.904 : :Chapter 38
x264
x264 [info]: frame I:1417 Avg QP:16.32 size:238517
x264 [info]: frame P:52135 Avg QP:18.84 size:114929
x264 [info]: frame B:166168 Avg QP:21.03 size: 49222
Скриншоты

Source         vs           Encode

Цитата:
За исходный диск спасибо - hgking
За перевод ВГТРК / ТК "Россия" большое спасибо small_pipi
Nekontroliruemij_devil за перевод Сергея Визгунова и Нины
Glanz за перевод Сергея Визгунова
Синхронизация переводов - akchurin.a2011
За украинскую звуковую дорожку и субтитры спасибо сайту hurtom. Дорожку синхронизировал Elheym.
Скачать

Скачать торрент!

Как скачивать? · Что такое торрент? · Рейтинг и ограничения

Сайт не распространяет и не хранит электронные версии произведений, а лишь предоставляет доступ к создаваемому пользователями каталогу ссылок на торрент-файлы, которые содержат только списки хеш-сумм

[Профиль] [ЛС]
Показать сообщения:    
Ответить на тему

Текущее время: Сегодня 08:52

Часовой пояс: GMT + 4



Вы не можете начинать темы
Вы не можете отвечать на сообщения
Вы не можете редактировать свои сообщения
Вы не можете удалять свои сообщения
Вы не можете голосовать в опросах
Вы не можете прикреплять файлы к сообщениям
Вы не можете скачивать файлы