Крутой вираж / Crash and Burn (Рассел Малкэй / Russell Mulcahy) [2008, США, боевик, триллер, HDTV 1080i] MVO

Ответить на тему
 
Автор Сообщение

user ®

Стаж: 7 лет 7 месяцев

Сообщений: 20008

Пост Пост: #1 от 06-Фев-2015 18:24

[Цитировать]

Крутой вираж / Crash and Burn Страна: США
Жанр: боевик, триллер
Год выпуска: 2008
Продолжительность: 01:21:43
Перевод: Профессиональный (многоголосый закадровый)
Cубтитры: нет
Режиссер: Рассел Малкэй / Russell Mulcahy
В ролях: Эрик Палладино, Майкл Мэдсен, Дэвид Москоу, Хезер Мари Мэрсден, Питер Джейсон, Оуэн Бекман, Джефф Энден, Энтони Джон Дэнисон, Лобо Себастьян,Риго Санчес
Описание: Вернувшись в Лос-Анджелес после долгого отсутствия, профессиональный угонщик Кевин Хокинс сразу вливается в компанию старых друзей — таких же профессионалов, которые именно в это время получают большой заказ на партию дорогих, редких и престижных автомобилей. Но в городе, кроме них, орудует еще одна банда, члены которой жестоки и не терпят соперничества в таком прибыльном бизнесе, как угон и продажа ворованных автомобилей.
Любой вторгшийся на их территорию может запросто поплатиться жизнью. Но заказ принят, и его необходимо выполнить. Хотя бы еще потому, что Кевин уже не тот человек, которого друзья знали раньше, и сейчас он ведет двойную игру…
Сэмпл: http://rusfolder.com/42910211

Тип релиза: HDTV 1080i
Контейнер: TS
Видео: AVC/H.264, 1920x1080 (16:9), 9358 Кбит/сек, 25.000 fps
Аудио: русский, MP2, 2ch, 48,0 КГц, 192 Кбит/сек
MediaInfo
Общее
Идентификатор : 1 (0x1)
Полное имя : D:\Крутой вираж.ts
Формат : MPEG-TS
Размер файла : 5,74 Гбайт
Продолжительность : 1 ч. 21 м.
Режим общего битрейта : Переменный
Общий поток : 10,0 Мбит/сек
Максимальный общий битрейт : 35,5 Мбит/сек
Видео
Идентификатор : 4113 (0x1011)
Идентификатор меню : 1 (0x1)
Формат : AVC
Формат/Информация : Advanced Video Codec
Профиль формата : Main@L4.0
Параметр CABAC формата : Да
Параметр ReFrames формата : 3 кадра
Идентификатор кодека : 27
Продолжительность : 1 ч. 21 м.
Вид битрейта : Переменный
Битрейт : 9358 Кбит/сек
Максимальный битрейт : 40,0 Мбит/сек
Ширина : 1920 пикселей
Высота : 1080 пикселей
Соотношение сторон : 16:9
Частота кадров : 25,000 кадров/сек
Стандарт вещания : Component
Цветовое пространство : YUV
Субдискретизация насыщенности : 4:2:0
Битовая глубина : 8 бит
Тип развёртки : Чересстрочная
Порядок развёртки : Верхнее поле первое
Бит/(Пиксели*Кадры) : 0.181
Размер потока : 5,34 Гбайт (93%)
colour_range : Limited
Аудио
Идентификатор : 4352 (0x1100)
Идентификатор меню : 1 (0x1)
Формат : MPEG Audio
Версия формата : Version 1
Профиль формата : Layer 2
Идентификатор кодека : 4
Продолжительность : 1 ч. 21 м.
Вид битрейта : Постоянный
Битрейт : 192 Кбит/сек
Каналы : 2 канала
Частота : 48,0 КГц
Метод сжатия : С потерями
Размер потока : 112 Мбайт (2%)
Язык : Russian
Скриншот с названием фильма Скриншоты
Скачать

Скачать торрент!

Как скачивать? · Что такое торрент? · Рейтинг и ограничения

Сайт не распространяет и не хранит электронные версии произведений, а лишь предоставляет доступ к создаваемому пользователями каталогу ссылок на торрент-файлы, которые содержат только списки хеш-сумм

[Профиль] [ЛС]
Показать сообщения:    
Ответить на тему

Текущее время: Сегодня 14:09

Часовой пояс: GMT + 4



Вы не можете начинать темы
Вы не можете отвечать на сообщения
Вы не можете редактировать свои сообщения
Вы не можете удалять свои сообщения
Вы не можете голосовать в опросах
Вы не можете прикреплять файлы к сообщениям
Вы не можете скачивать файлы