Джу-рей: Злой Дух / Дзю-Рэй: Злобный дух / Ju-rei: The Uncanny (Коджи Шираиши / Koji Shiraishi) [2004, Япония, Ужасы, DVDRip] VO (sergik1) + Sub Eng

Ответить на тему
 
Автор Сообщение

user ®

Стаж: 13 лет

Сообщений: 15071

Пост Пост: #1 от 06-Фев-2015 13:27

[Цитировать]

Джу-рей: Злой Дух / Дзю-Рэй: Злобный дух / Ju-rei: The Uncanny
Страна: Япония
Жанр: Ужасы
Год выпуска: 2004
Продолжительность: 01:14:30
Перевод: Одноголосый закадровый sergik1 (дебютная озвучка) по субтитрам Прохор666
Cубтитры: Нет
Режиссер: Коджи Шираиши / Kôji Shiraishi
В ролях: Чинацу Вакацуки, Мику Уено, Икиро Огура, Кэндзи Шио, Ясуко Мори и другие
Описание: Фильм о проклятии, которое распространяется по Японии. Все, до кого дотрагиваются тёмные тени умерших людей, обречены...
Доп. информация: Исходник и субтитры для озвучивания взяты здесь [url=http://***/forum/viewtopic.php?t=1016880]http://***/forum/viewtopic.php?t=1016880[/url]
Сэмпл: https://yadi.sk/i/2V0FWayeeTL59
Качество видео: DVDRip
Формат видео: AVI
Видео: 720x480 (1.50:1),24 fps,780 kbps avg,0.094 bit/pixel,416 Mb
Аудио: 48 kHz, AC3 Dolby Digital, 2/0 (L,R) ch, 192.00 kbps avg
MediaInfo
Полное имя: C:\Users\Acer\Desktop\Ju-rei - The Uncanny.avi
Формат: AVI
Формат/Информация: Audio Video Interleave
Размер файла: 523 Мбайт
Продолжительность: 1 ч. 14 м.
Общий поток: 982 Кбит/сек
Программа кодирования: #1 DVD Ripper 6.0, Aug 31 2007 21:07:48
Библиотека кодирования: VirtualDub build 35491/release
Видео
Идентификатор: 0
Формат: MPEG-4 Visual
Параметр BVOP формата: 1
Параметр QPel формата: Нет
Параметр GMC формата: Без точки перехода
Параметр матрицы формата: Default (H.263)
Режим смешивания: Сжатый битовый поток
Идентификатор кодека: DX50
Идентификатор кодека/Подсказка: DivX 5
Продолжительность: 1 ч. 14 м.
Битрейт: 780 Кбит/сек
Ширина: 720 пикселей
Высота: 480 пикселей
Соотношение сторон: 3:2
Частота кадров: 24,000 кадра/сек
Стандарт вещания: NTSC
Цветовое пространство: YUV
Субдискретизация насыщенности: 4:2:0
Битовая глубина: 8 бит
Тип развёртки: Прогрессивная
Метод сжатия: С потерями
Бит/(Пиксели*Кадры): 0.094
Размер потока: 416 Мбайт (79%)
Библиотека кодирования: DivX 5.1.1 (Maupiti) (UTC 2003-11-19)
Аудио
Идентификатор: 1
Формат: AC-3
Формат/Информация: Audio Coding 3
Расширение режима: CM (complete main)
Параметр Endianness формата: Big
Идентификатор кодека: 2000
Продолжительность: 1 ч. 14 м.
Вид битрейта: Постоянный
Битрейт: 192 Кбит/сек
Каналы: 2 канала
Расположение каналов: Front: L R
Частота: 48,0 КГц
Битовая глубина: 16 бит
Метод сжатия: С потерями
Размер потока: 102 Мбайт (20%)
Выравнивание: Соединение по промежуткам
Продолжительность промежутка: 42 мс. (1,00 видеокадр)
Время предзагрузки промежутка: 512 мс.
Скриншот c названием фильма
[
Скриншоты
Скачать

Скачать торрент! Джу-рей: Злой Дух / Дзю-Рэй: Злобный дух / Ju-rei: The Uncanny (Коджи Шираиши / Koji Shiraishi) [2004, Япония, Ужасы, DVDRip] VO (sergik1) + Sub Eng

Как скачивать? · Что такое торрент? · Рейтинг и ограничения

Сайт не распространяет и не хранит электронные версии произведений, а лишь предоставляет доступ к создаваемому пользователями каталогу ссылок на торрент-файлы, которые содержат только списки хеш-сумм

[Профиль] [ЛС]
Показать сообщения:    
Ответить на тему

Текущее время: Сегодня 21:34

Часовой пояс: GMT + 4



Вы не можете начинать темы
Вы не можете отвечать на сообщения
Вы не можете редактировать свои сообщения
Вы не можете удалять свои сообщения
Вы не можете голосовать в опросах
Вы не можете прикреплять файлы к сообщениям
Вы не можете скачивать файлы