Тёмный принц / Dracula: The Dark Prince (Тео Пирри / Pearry Reginald Teo) [2013, США, Боевик, Фэнтези, BDRip 1080p] VO (Barin101) + Original Eng + Sub Rus, Eng

Ответить на тему
 
Автор Сообщение

user ®

Стаж: 7 лет 7 месяцев

Сообщений: 20008

Пост Пост: #1 от 06-Фев-2015 02:30

[Цитировать]

Тёмный принц / Dracula: The Dark Prince
Страна: США
Жанр: Боевик, Фэнтези
Год выпуска: 2013
Продолжительность: 1:39:46
Перевод: Одноголосый (закадровый) [Barin101]
Оригинальная аудиодорожка: английская
Cубтитры: русские, английские
Режиссер: Тео Пирри / Teo Pearry
В ролях:Люк Робертс, Джон Войт, Келли Венхам, Бен Робсон, Холли Эрл, Стефен Хоган, Ричард Эштон и др.
Описание:Чтобы стать самым могущественным на земле, Дракула стремится заполучить Светоносец, древнее оружие, обладающее невероятной силой.
Но крестоносцы не дремлют: они уже раздобыли Светоносец, и охотятся на самого Дракулу, чтобы уничтожить его.
Случайно в руки Дракулы попадает девушка-крестоносец по имени Алина, чудесным образом напоминающая его возлюбленную, погибшую от рук заговорщиков много лет назад.

Тип релиза: BDRip 1080p
Контейнер: MKV
Видео: MPEG-4 AVC, 9700 Кбит/с, 1920x1080, 23.976 кадр/с
Аудио 1: DTS, 1510 kb/s (6 ch), 48 kHz |Rus
Аудио 2: DTS, 1510 kb/s (6 ch), 48 kHz |Eng

MI
Общее
Уникальный идентификатор : 219003714248536059251624375397548913243 (0xA4C294C44D444ADFA286688B7751725B)
Полное имя : C:\Users\Пользователь\Downloads\Dracula.The.Dark.Prince.2013.x264.BDRip.1080p..mkv
Формат : Matroska
Версия формата : Version 4 / Version 2
Размер файла : 8,85 Гбайт
Продолжительность : 1 ч. 39 м.
Общий поток : 12,7 Мбит/сек
Название фильма : Dracula The Dark Prince 2013
Дата кодирования : UTC 2015-02-02 11:57:12
Программа кодирования : mkvmerge v7.5.0 ('Glass Culture') 32bit built on Jan 4 2015 16:37:25
Библиотека кодирования : libebml v1.3.1 + libmatroska v1.4.2
_STATISTICS_WRITING_APP : mkvmerge v7.5.0 ('Glass Culture') 32bit built on Jan 4 2015 16:37:25
_STATISTICS_WRITING_DATE_UTC : 2015-02-02 11:57:12
_STATISTICS_TAGS : BPS DURATION NUMBER_OF_FRAMES NUMBER_OF_BYTES
DURATION : 01:34:40.775000000
NUMBER_OF_FRAMES : 979
NUMBER_OF_BYTES : 44604
Видео
Идентификатор : 1
Формат : AVC
Формат/Информация : Advanced Video Codec
Профиль формата : High@L4.1
Параметр CABAC формата : Да
Параметр ReFrames формата : 4 кадра
Идентификатор кодека : V_MPEG4/ISO/AVC
Продолжительность : 1 ч. 39 м.
Битрейт : 9700 Кбит/сек
Ширина : 1920 пикселей
Высота : 1080 пикселей
Соотношение сторон : 16:9
Режим частоты кадров : Постоянный
Частота кадров : 23,976 кадра/сек
Цветовое пространство : YUV
Субдискретизация насыщенности : 4:2:0
Битовая глубина : 8 бит
Тип развёртки : Прогрессивная
Бит/(Пиксели*Кадры) : 0.195
Размер потока : 6,57 Гбайт (74%)
Заголовок : Sergei7721
Библиотека кодирования : x264 core 133 r2334 a3ac64b
Настройки программы : cabac=1 / ref=4 / deblock=1:-1:-1 / analyse=0x3:0x113 / me=umh / subme=11 / psy=1 / psy_rd=1.00:0.20 / mixed_ref=1 / me_range=24 / chroma_me=1 / trellis=2 / 8x8dct=1 / cqm=0 / deadzone=21,11 / fast_pskip=0 / chroma_qp_offset=-3 / threads=12 / lookahead_threads=1 / sliced_threads=0 / nr=0 / decimate=0 / interlaced=0 / bluray_compat=0 / constrained_intra=0 / bframes=6 / b_pyramid=2 / b_adapt=2 / b_bias=0 / direct=3 / weightb=1 / open_gop=0 / weightp=2 / keyint=240 / keyint_min=23 / scenecut=40 / intra_refresh=0 / rc_lookahead=40 / rc=2pass / mbtree=0 / bitrate=9700 / ratetol=1.0 / qcomp=0.60 / qpmin=0 / qpmax=69 / qpstep=4 / cplxblur=20.0 / qblur=0.5 / vbv_maxrate=50000 / vbv_bufsize=62500 / nal_hrd=none / ip_ratio=1.40 / pb_ratio=1.30 / aq=1:1.00
Default : Да
Forced : Нет
_STATISTICS_WRITING_APP : mkvmerge v7.5.0 ('Glass Culture') 32bit built on Jan 4 2015 16:37:25
_STATISTICS_WRITING_DATE_UTC : 2015-02-02 11:57:12
_STATISTICS_TAGS : BPS DURATION NUMBER_OF_FRAMES NUMBER_OF_BYTES
DURATION : 01:39:38.932000000
NUMBER_OF_FRAMES : 143351
NUMBER_OF_BYTES : 7241583354
Аудио #1
Идентификатор : 2
Формат : DTS
Формат/Информация : Digital Theater Systems
Режим : 16
Параметр Endianness формата : Big
Идентификатор кодека : A_DTS
Продолжительность : 1 ч. 39 м.
Вид битрейта : Постоянный
Битрейт : 1509 Кбит/сек
Каналы : 6 каналов
Расположение каналов : Front: L C R, Side: L R, LFE
Частота : 48,0 КГц
Битовая глубина : 16 бит
Метод сжатия : С потерями
Размер потока : 1,05 Гбайт (12%)
Язык : Russian
Default : Да
Forced : Нет
Аудио #2
Идентификатор : 3
Формат : DTS
Формат/Информация : Digital Theater Systems
Режим : 16
Параметр Endianness формата : Big
Идентификатор кодека : A_DTS
Продолжительность : 1 ч. 39 м.
Вид битрейта : Постоянный
Битрейт : 1509 Кбит/сек
Каналы : 6 каналов
Расположение каналов : Front: L C R, Side: L R, LFE
Частота : 48,0 КГц
Битовая глубина : 16 бит
Метод сжатия : С потерями
Размер потока : 1,05 Гбайт (12%)
Язык : English
Default : Нет
Forced : Нет
Текст #1
Идентификатор : 4
Формат : UTF-8
Идентификатор кодека : S_TEXT/UTF8
Идентификатор кодека/Информация : UTF-8 Plain Text
Язык : Russian
Default : Нет
Forced : Нет
Текст #2
Идентификатор : 5
Формат : UTF-8
Идентификатор кодека : S_TEXT/UTF8
Идентификатор кодека/Информация : UTF-8 Plain Text
Язык : English
Default : Нет
Forced : Нет
Меню
00:00:00.000 : en:00:00:00.000
00:09:08.757 : en:00:09:08.757
00:18:54.717 : en:00:18:54.717
00:28:07.978 : en:00:28:07.978
00:36:04.412 : en:00:36:04.412
00:46:12.979 : en:00:46:12.979
00:57:35.410 : en:00:57:35.410
01:04:54.057 : en:01:04:54.057
01:12:02.443 : en:01:12:02.443
01:19:22.424 : en:01:19:22.424
01:26:31.144 : en:01:26:31.144
01:34:54.397 : en:01:34:54.397
Скриншоты
Скачать

Скачать торрент!

Как скачивать? · Что такое торрент? · Рейтинг и ограничения

Сайт не распространяет и не хранит электронные версии произведений, а лишь предоставляет доступ к создаваемому пользователями каталогу ссылок на торрент-файлы, которые содержат только списки хеш-сумм

[Профиль] [ЛС]
Показать сообщения:    
Ответить на тему

Текущее время: Сегодня 00:43

Часовой пояс: GMT + 4



Вы не можете начинать темы
Вы не можете отвечать на сообщения
Вы не можете редактировать свои сообщения
Вы не можете удалять свои сообщения
Вы не можете голосовать в опросах
Вы не можете прикреплять файлы к сообщениям
Вы не можете скачивать файлы